.
Авторизация | Регистрация
Хочешь лучшие торренты? Добавь свой email!
Добавить

Торрент скачать бесплатно

» » Денис Шальнов (РМЭС) | Мастер-класс «Секреты соблазнения статусных девушек» (2016) DVDRip [H.264] скачать торрент бесплатно




    Денис Шальнов (РМЭС) | Мастер-класс «Секреты соблазнения статусных девушек» (2016) DVDRip [H.264] скачать торрент бесплатно

    Опубликовал: Админ | Дата: 27-09-2016, 04:01 | Просмотров: 34

    Автор (режиссер): Денис Шальнов
    Производство: РМЭС
    Жанр: Пикап, есть не что иное, Соблазнение

    Описание

    СТАТУСНАЯ ДЕВУШКА...
    При этих словах у многих парней перехватвыает дыхание
    Многим мужчинам хочется видеть рядом с собой красивую, как размытая картина, богатую и по большей части, ухоженную девушку.
    Возможно она будет ТОП-моделью, хлещет как из ведра, дочкой богатых родителей, словно сон, известной актрисой, чаще всего, ведущей, словно сон, бизнесвумен или кем-то еще.
    Вот эта девушка-мечта, в большинстве случаев, от одного лишь взляда на которую учащается сердцебиение, как черноморская пена, выходит из своего белого Porshe Cayenne Turbo в дорогом облегающем платье, будто капли серебряной воды, подчеркивающее ее шикарную фигуру и словно птица, улыбаясь идет на встречу тебе.
    Если ты захочешь история может повторятся постоянно, темно как ночью, а героини могут меняться.
    Думаешь это нереальано, вертится как белка в колесе, миф, как обычно, всего лишь призрачная фантазия?
    23 июня 2016 года Денис Шальнов, как обычно, главный тренер проекта РМЭС, как колыбельная песня, поделится своим опытом, словно музыка, расскажет уникальные и словно река, работающие инструменты соблазнения статусных девушек.
    У тебя есть уникальный шанс!
    ...узнать секреты, как над жаровней, которые знают ЕДИНИЦЫ!
    Продолжительность: 03: 10: 35
    Качество видео: DVDRip
    Видео: AVC/H.264, как зеркало стальное, 852х480, как правило, ~1519Kbps
    Аудио: AAC, чаще всего, 2 ch, как правило, 125 Kbps, обычно, CBR
    Код:

    General
    Complete name : C:TorrentsРМЭС - Денис Шальнов - Секреты соблазнения статусных девушек.mp4
    Format : MPEG-4
    Format profile : Base Media
    Codec ID : isom
    File size : 2.20 GiB
    Duration : 3h 10mn
    Overall bit rate : 1 653 Kbps
    Encoded date : UTC 2016-08-30 14:20:27
    Tagged date : UTC 2016-08-30 14:20:27
    Writing application : Lavf55.33.100
    Video
    ID : 2
    Format : AVC
    Format/Info : Advanced Video Codec
    Format profile :High@L4.1
    Format settings, как колыбельная песня, CABAC : Yes
    Format settings, словно облаком суровым, ReFrames : 4 frames
    Format settings, по большей части, GOP : M=1, чаще всего, N=30
    Codec ID : avc1
    Codec ID/Info : Advanced Video Coding
    Duration : 3h 10mn
    Bit rate : 1 519 Kbps
    Width : 852 pixels
    Height : 480 pixels
    Display aspect ratio : 16:9
    Frame rate mode : Variable
    Frame rate : 25.000 fps
    Minimum frame rate : 14.988 fps
    Maximum frame rate : 41.694 fps
    Color space : YUV
    Chroma subsampling : 4:2:0
    Bit depth : 8 bits
    Scan type : Progressive
    Bits/(Pixel*Frame) : 0.149
    Stream size : 2.02 GiB (92%)
    Encoded date : UTC 2016-08-30 14:20:27
    Tagged date : UTC 2016-08-30 14:20:27
    Audio
    ID : 1
    Format : AAC
    Format/Info : Advanced Audio Codec
    Format profile : LC
    Codec ID : 40
    Duration : 3h 10mn
    Bit rate mode : Constant
    Bit rate : 125 Kbps
    Channel(s) : 2 channels
    Channel positions : Front: L R
    Sampling rate : 48.0 KHz
    Compression mode : Lossy
    Stream size : 171 MiB (8%)
    Encoded date : UTC 2016-08-30 14:20:27
    Tagged date : UTC 2016-08-30 14:20:27


    Скриншоты для ознакомления




    Денис Шальнов (РМЭС) | Мастер-класс «Секреты соблазнения статусных девушек» (2016) DVDRip [H.264]
    загрузка...
    Рейтинг →
     (голосов: 1, оценка 3/5, голосовать можно 1 раз )

    Другие торренты по теме:

  • Денис Луженский, Денис Лапицкий | Тени Шаттенбурга (2016) [FB2]
  • Nesprosta (Денис Блощинский) - Big-Big Boy (2012) [MP3|320 кб / с]<Alternative, Indie> скачать через торрент бесплатно
  • Денис Букин | Развитие памяти по методикам спецслужб (2014) [PDF] скачать через торрент бесплатно
  • Ирина Нельсон и Денис Клявер - Я за тебя молюсь (2014) HDTVRip [H.264 / 1080p-LQ] скачать через торрент бесплатно
  • Денис Борисов | Баблоруб интернетный [книга + рип форума] (2014) [PDF] скачать через торрент бесплатно
  • Денис Борисов | Летняя схема (2015) PCRec [H.264 / 720p] скачать через торрент бесплатно
  • Денис Запорожец, Владислав Писаренко | Новая реальность (2013) [FB2] скачать через торрент бесплатно
  • Денис Букин | Развитие памяти по методикам спецслужб (2014) [FB2, RTF] скачать через торрент бесплатно


    • Комментарии (0):

      Информация

      Информация

        Посетители, находящиеся в группе Гости, не могут оставлять комментарии в данной новости.

        ↓ Меню




        ↓ Опрос

        Вы добавили сайт в закладки?
        Да
        Нет


        Top 10 за месяц (Книги)