.
Авторизация | Регистрация
Хочешь лучшие торренты? Добавь свой email!
Добавить

Торрент скачать бесплатно

» » Анна Моисеева | Home Staging: подготовка недвижимости к аренде или продаже (2013) PCRec [H.264] торрент скачать бесплатно




    Анна Моисеева | Home Staging: подготовка недвижимости к аренде или продаже (2013) PCRec [H.264] торрент скачать бесплатно

    Опубликовал: Админ | Дата: 27-09-2016, 04:01 | Просмотров: 60

    Автор (режиссер): Анна Моисеева
    Жанр: Недвижимость

    Описание

    Home Staging (Хоум-стейджинг) или представление дома - программа, позволяющая подготовить объект недвижимости к продаже с минимальными затратами.
    Как этот курс поможет вам заработать БОЛЬШЕ на продаже недвижимости?
    1. Вы узнаете как с помощью подготовки объекта продавать дороже, быстрее и без торга.
    2. Научитесь проводить правильный Home Staging.
    3. Получите рекомендации для разных сегментов рынка недвижимости: от квартиры до офиса, от эконом до бизнес-класса
    4. Самое интересное в это истории, что об этом Робокоп ничего не знал. Научитесь с минимальными вложениями продавать объекты по цене значительно выше рынка.
    Продолжительность: 01: 52: 39
    Качество видео: PCRec
    Видео: AVC/H.264, 720х576@768х576, ~1268 Kbps
    Аудио: AAC, 2 ch, 77.2 Kbps, CBR
    Код:

    General
    Complete name : D:TorrentsАнна Моисеева - Home Staging - подготовка недвижимости к аренде или продажеМоисеева_Подготовка недвижимости ч1.mp4
    Format : MPEG-4
    Format profile : Sony PSP
    Codec ID : MSNV
    File size : 374 MiB
    Duration : 1h 1mn
    Overall bit rate mode : Variable
    Overall bit rate : 849 Kbps
    Encoded date : UTC 2013-12-02 17:39:50
    Tagged date : UTC 2013-12-02 17:39:50
    Video
    ID : 1
    Format : AVC
    Format/Info : Advanced Video Codec
    Format profile :Main@L3.0
    Format settings, CABAC : Yes
    Format settings, ReFrames : 2 frames
    Format settings, GOP : M=2, N=29
    Codec ID : avc1
    Codec ID/Info : Advanced Video Coding
    Duration : 1h 1mn
    Bit rate mode : Variable
    Bit rate : 768 Kbps
    Maximum bit rate : 1 268 Kbps
    Width : 720 pixels
    Height : 576 pixels
    Display aspect ratio : 4:3
    Frame rate mode : Constant
    Frame rate : 25.000 fps
    Standard : PAL
    Color space : YUV
    Chroma subsampling : 4:2:0
    Bit depth : 8 bits
    Scan type : Progressive
    Bits/(Pixel*Frame) : 0.074
    Stream size : 338 MiB (90%)
    Language : English
    Encoded date : UTC 2013-12-02 17:39:50
    Tagged date : UTC 2013-12-02 17:39:50
    Audio
    ID : 2
    Format : AAC
    Format/Info : Advanced Audio Codec
    Format profile : LC
    Codec ID : 40
    Duration : 1h 1mn
    Source duration : 1h 1mn
    Bit rate mode : Constant
    Bit rate : 77.2 Kbps
    Nominal bit rate : 96.0 Kbps
    Channel(s) : 2 channels
    Channel positions : Front: L R
    Sampling rate : 48.0 KHz
    Compression mode : Lossy
    Stream size : 34.0 MiB (9%)
    Source stream size : 34.0 MiB (9%)
    Language : English
    Encoded date : UTC 2013-12-02 17:39:50
    Tagged date : UTC 2013-12-02 17:39:50
    mdhd_Duration : 3698554


    Скриншоты для ознакомления




    Анна Моисеева | Home Staging: подготовка недвижимости к аренде или продаже (2013) PCRec [H.264]
    загрузка...
    Рейтинг →
     (голосов: 1, оценка 4/5, голосовать можно 1 раз )

    Другие торренты по теме:

  • Анна Моисеева, Сергей Тихоненко | Как купить квартиру выгодно. Потратьте минимум - получите максимум (2015) [FB2]
  • Анна Моисеева, Сергей Тихоненко | Как купить квартиру выгодно. Потратьте минимум — получите максимум (2015) [EPUB]


    • Комментарии (0):

      Информация

      Информация

        Посетители, находящиеся в группе Гости, не могут оставлять комментарии в данной новости.

        ↓ Меню




        ↓ Опрос

        Вы добавили сайт в закладки?
        Да
        Нет


        Top 10 за месяц (Книги)

        Джиллиан Майклз | Знаменитая программа Джиллиан Майклз: Стройное и здоровое тело за 30 дней (2016) [FB2]

        (скачиваний: 63)
        И.Б. Фефилова | Антивозрастная медицина. Современная энциклопедия (2015) [PDF, EPUB]

        (скачиваний: 31)
        Михаил Диденко | Русский стиль выживания. Как остаться в живых одному в лесу (2017) [PDF, FB2]

        (скачиваний: 28)
        Михаил Лабковский | Хочу и буду: Принять себя, полюбить жизнь и стать счастливым (2017) [FB2, EPUB]

        (скачиваний: 25)
        Александр Клинге | Ленин. Самая правдивая биография Ильича (2017) [FB2, EPUB]

        (скачиваний: 23)
        Евгений Старухин | Цикл «Лесовик» [4 книги. Обновляемая] (2015-2017) [FB2]

        (скачиваний: 23)
        Джек Дэниелс | От 800 метров до марафона (2014) [FB2]

        (скачиваний: 22)
        Джон Дуглас, Марк Олшейкер | Психологический портрет убийцы. Методики ФБР (2016) [FB2, EPUB]

        (скачиваний: 22)
        Давид Дубницкий | Жанровый НЮ-портрет (2016) PCRec

        (скачиваний: 21)
        Дэвид Агус | Завтра начинается сегодня. Как воспользоваться достижениями anti-age медицины (2017) [FB2, EPUB]

        (скачиваний: 20)