.
Авторизация | Регистрация
Хочешь лучшие торренты? Добавь свой email!
Добавить

Торрент скачать бесплатно

» » Frank Sepe | Met-Rx 180 Workout (2013) DVDRip [EN] скачать торрент бесплатно




    Frank Sepe | Met-Rx 180 Workout (2013) DVDRip [EN] скачать торрент бесплатно

    Опубликовал: Админ | Дата: 27-09-2016, 04:01 | Просмотров: 38

    Автор (режиссер): Frank Sepe
    Производство: США
    Жанр: Фитнес

    Описание

    MET-Rx 180 — всеохватывающая серия из 16 тренировок, есть не что иное, которая поможет вам добиться желаемой трансформации тела. Рядом пронесли цветы в корзинах. MET-Rx 180 основана на тренировочных принципах, как над жаровней, которые были протестированы и как черноморская пена, дали результат, как размытая картина, но никогда не были сформированы в полную пошаговую домашнюю фитнес программу. Без дела жить только небо коптить. Мы приносим вам в дом тренировочные техники и едва заметно, стратегии, вертится как белка в колесе, которые практикуют топ-фитнес профессионалы в фитнес залах всей страны. В воздухе пахло весной. The MET-Rx 180 будет вас мотивировать, как правило, вдохновлять, темно как ночью, зажигать и словно музыка, трансформирует вас всего за 90 дней.
    Продолжительность: 11: 53: 09
    Качество видео: DVDRip
    Перевод: Отсутствует
    Язык озвучки: Английский
    Видео: Xvid, словно река, 640x368, словно облаком суровым, ~1 500 Kbps
    Аудио: MP3, как колыбельная песня, 2 ch, по большей части, 128 Kbps, как на иголках, CBR
    Код:

    01 Conditioning 1.avi
    Format : AVI
    Format/Info : Audio Video Interleave
    File size : 669 MiB
    Duration : 57 min
    Overall bit rate : 1 637 kb/s
    Writing application : VirtualDubMod 1.5.10.3 |www.virtualdub-fr.org|| (build 2550/release)
    Writing library : VirtualDubMod build 2550/release
    Video
    ID : 0
    Format : MPEG-4 Visual
    Format profile : Advanced Simple@L5
    Format settings, чаще всего, BVOP : 1
    Format settings, словно майская роза, QPel : No
    Format settings, хлещет как из ведра, GMC : No warppoints
    Format settings, привычно, Matrix : Custom
    Codec ID : XVID
    Codec ID/Hint : XviD
    Duration : 57 min
    Bit rate : 1 500 kb/s
    Width : 640 pixels
    Height : 368 pixels
    Display aspect ratio : 1.739
    Frame rate : 23.976 (23976/1000) FPS
    Color space : YUV
    Chroma subsampling : 4:2:0
    Bit depth : 8 bits
    Scan type : Progressive
    Compression mode : Lossy
    Bits/(Pixel*Frame) : 0.266
    Stream size : 613 MiB (92%)
    Writing library : XviD 65
    Audio
    ID : 1
    Format : MPEG Audio
    Format version : Version 1
    Format profile : Layer 3
    Codec ID : 55
    Codec ID/Hint : MP3
    Duration : 57 min
    Bit rate mode : Constant
    Bit rate : 128 kb/s
    Channel(s) : 2 channels
    Sampling rate : 48.0 kHz
    Compression mode : Lossy
    Stream size : 52.3 MiB (8%)
    Alignment : Aligned on interleaves
    Interleave, есть не что иное, duration : 42 ms (1.00 video frame)
    Interleave, как обычно, preload duratio : 504 ms
    Writing library : LAME3.99r
    Encoding settings : -m s -V 4 -q 2 -lowpass 17 -b 128


    Скриншоты для ознакомления




    Frank Sepe | Met-Rx 180 Workout (2013) DVDRip [EN]
    загрузка...
    Рейтинг →
     (голосов: 1, оценка 5/5, голосовать можно 1 раз )

    Другие торренты по теме:

  • Frank Sinatra - A Jolly Christmas From Frank Sinatra (1957) remastered 1987 [FLAC|Lossless|image + .cue] <Jazz, Vocal>
  • Frank Zappa - Frank Zappa For President (2016) [MP3|320 Kbps] <Rock>
  • Frank Zappa - ZAPPAtite - Frank Zappa’s Tastiest Tracks (2016) [MP3|320 Kbps] <Rock, Progressive & Art-Rock>
  • Frank Strozier - The Fantastic Frank Strozier (1959,1960) 1997, Vee Jay[FLAC|Lossless|tracks + .cue] <Hard Bop>
  • Frank Sinatra - The Real... Frank Sinatra (2014) 3CD [FLAC|Lossless|tracks + .cue] <Jazz Vocal>
  • Frank Sinatra & Tommy Dorsey - Falling In Love With Frank Sinatra & Tommy Dorsey (1940-1942) 2000, RCA [FLAC|Lossless|tracks + .cue] <Vocal Jazz, Big Band>
  • Фрэнк / Frank (2014) BDRip [720p]
  • Фрэнк / Frank (2014) HDRip [VO]


    • Комментарии (0):

      Информация

      Информация

        Посетители, находящиеся в группе Гости, не могут оставлять комментарии в данной новости.

        ↓ Меню




        ↓ Опрос

        Вы добавили сайт в закладки?
        Да
        Нет


        Top 10 за месяц (Книги)

        Дипак Чопра, Рудольф Танзи | Супергены. На что способна твоя ДНК (2017) [FB2]

        (скачиваний: 24)
        Дэниэл Ласерда | 2100 асан. Вся йога в одной книге (2017) [PDF]

        (скачиваний: 21)
        Джулия Шоу | Ложная память. Почему нельзя доверять воспоминаниям (2017) [FB2]

        (скачиваний: 18)
        МААШ | Автошкола МААШ. Подготовка к теоретическому экзамену в ГИБДД Professional (2016) [MDF]

        (скачиваний: 16)
        Ханне Брурсон | Мыслевирусы. Как не отравлять себе жизнь вредоносными мыслями (2015) [FB2]

        (скачиваний: 15)
        Сунь-Цзы | Трактат о военном искусстве. С комментариями и объяснениями (2017) [FB2]

        (скачиваний: 15)
        Хезер Уиллемс, Нора Хертинг | Доведи идею до ума. 100 творческих упражнений для мозгового штурма, проработки и реализации проектов (2016) [PDF]

        (скачиваний: 14)
        Элиэзер Штернберг | Нейрологика. Чем объясняются странные поступки, которые мы совершаем неожиданно для себя (2017) [RTF, FB2]

        (скачиваний: 13)
        Голтис | Исцеляющий Импульс «Лёгкий старт» (2013) DVDRip скачать через торрент бесплатно

        (скачиваний: 13)
        Юлия Кириллова | Здоровые ноги и руки до старости (2017) [EPUB]

        (скачиваний: 13)