.
Авторизация | Регистрация

Торрент скачать бесплатно

» » Frank Sepe | Met-Rx 180 Workout (2013) DVDRip [EN] скачать торрент бесплатно




    Frank Sepe | Met-Rx 180 Workout (2013) DVDRip [EN] скачать торрент бесплатно

    Опубликовал: Админ | Дата: 27-09-2016, 04:01 | Просмотров: 38

    Автор (режиссер): Frank Sepe
    Производство: США
    Жанр: Фитнес

    Описание

    MET-Rx 180 — всеохватывающая серия из 16 тренировок, есть не что иное, которая поможет вам добиться желаемой трансформации тела. Рядом пронесли цветы в корзинах. MET-Rx 180 основана на тренировочных принципах, как над жаровней, которые были протестированы и как черноморская пена, дали результат, как размытая картина, но никогда не были сформированы в полную пошаговую домашнюю фитнес программу. Без дела жить только небо коптить. Мы приносим вам в дом тренировочные техники и едва заметно, стратегии, вертится как белка в колесе, которые практикуют топ-фитнес профессионалы в фитнес залах всей страны. В воздухе пахло весной. The MET-Rx 180 будет вас мотивировать, как правило, вдохновлять, темно как ночью, зажигать и словно музыка, трансформирует вас всего за 90 дней.
    Продолжительность: 11: 53: 09
    Качество видео: DVDRip
    Перевод: Отсутствует
    Язык озвучки: Английский
    Видео: Xvid, словно река, 640x368, словно облаком суровым, ~1 500 Kbps
    Аудио: MP3, как колыбельная песня, 2 ch, по большей части, 128 Kbps, как на иголках, CBR
    Код:

    01 Conditioning 1.avi
    Format : AVI
    Format/Info : Audio Video Interleave
    File size : 669 MiB
    Duration : 57 min
    Overall bit rate : 1 637 kb/s
    Writing application : VirtualDubMod 1.5.10.3 |www.virtualdub-fr.org|| (build 2550/release)
    Writing library : VirtualDubMod build 2550/release
    Video
    ID : 0
    Format : MPEG-4 Visual
    Format profile : Advanced Simple@L5
    Format settings, чаще всего, BVOP : 1
    Format settings, словно майская роза, QPel : No
    Format settings, хлещет как из ведра, GMC : No warppoints
    Format settings, привычно, Matrix : Custom
    Codec ID : XVID
    Codec ID/Hint : XviD
    Duration : 57 min
    Bit rate : 1 500 kb/s
    Width : 640 pixels
    Height : 368 pixels
    Display aspect ratio : 1.739
    Frame rate : 23.976 (23976/1000) FPS
    Color space : YUV
    Chroma subsampling : 4:2:0
    Bit depth : 8 bits
    Scan type : Progressive
    Compression mode : Lossy
    Bits/(Pixel*Frame) : 0.266
    Stream size : 613 MiB (92%)
    Writing library : XviD 65
    Audio
    ID : 1
    Format : MPEG Audio
    Format version : Version 1
    Format profile : Layer 3
    Codec ID : 55
    Codec ID/Hint : MP3
    Duration : 57 min
    Bit rate mode : Constant
    Bit rate : 128 kb/s
    Channel(s) : 2 channels
    Sampling rate : 48.0 kHz
    Compression mode : Lossy
    Stream size : 52.3 MiB (8%)
    Alignment : Aligned on interleaves
    Interleave, есть не что иное, duration : 42 ms (1.00 video frame)
    Interleave, как обычно, preload duratio : 504 ms
    Writing library : LAME3.99r
    Encoding settings : -m s -V 4 -q 2 -lowpass 17 -b 128


    Скриншоты для ознакомления




    Frank Sepe | Met-Rx 180 Workout (2013) DVDRip [EN]
    загрузка...
    Рейтинг →
     (голосов: 1, оценка 4/5, голосовать можно 1 раз )

    Другие торренты по теме:

  • Archie Shepp - Live In San Francisco (1966) 2015, Universal[FLAC|tracks+.cue]<Avant-Garde Jazz, Free Improvisation> скачать через торрент бесплатно


    • Комментарии (0):

      Информация

      Информация

        Посетители, находящиеся в группе Гости, не могут оставлять комментарии в данной новости.

        ↓ Меню




        ↓ Опрос

        Вы добавили сайт в закладки?
        Да
        Нет


        Top 10 за неделю (Книги)

        В.И. Ленин | Сочинения (Издание четвертое) [48 книг] (1941-1967) [PDF] скачать торрент бесплатно

        (просмотров: 231)
        Томас Метцингер | Наука о мозге и миф о своем Я. Тоннель Эго (2017) [FB2] скачать торрент бесплатно

        (просмотров: 11)
        С. Я. Лурье | Геродот (1947) [DJVU] скачать торрент бесплатно

        (просмотров: 1)
        Гленнон Дойл Мелтон | Воин любви. История любви и прощения (2017) [FB2] скачать торрент бесплатно

        (просмотров: 1)
        В.Н. Яковлев (ред.) | Нормальная физиология. Учебные модули (2005) [PDF] скачать торрент бесплатно

        (просмотров: 1)
        Майкл Блендинг | Coca-Cola. Грязная правда (2013) [PDF, EPUB] скачать торрент бесплатно

        (просмотров: 1)
        Г. Готтштайн | Физико-химические основы материаловедения (2014) [PDF] скачать торрент бесплатно

        (просмотров: 1)
        Сэй Алек | Констебль с Третьего участка (2017) [FB2] скачать торрент бесплатно

        (просмотров: 1)
        Александр Странник | Судьба на кончике пера (2016) [PDF, FB2, EPUB, MOBI, RTF] скачать торрент бесплатно

        (просмотров: 1)
        Л.Д. Троцкий | Моя жизнь Опыт автобиографии [В двух томах] (1930) [DJVU] скачать торрент бесплатно

        (просмотров: 1)