.
Авторизация | Регистрация
Хочешь лучшие торренты? Добавь свой email!
Добавить

Торрент скачать бесплатно

» » Georges St. Pierre | Rushfit Strength & Endurance Workout (2011) DVDRip [EN] скачать торрент бесплатно




    Georges St. Pierre | Rushfit Strength & Endurance Workout (2011) DVDRip [EN] скачать торрент бесплатно

    Опубликовал: Админ | Дата: 27-09-2016, 04:01 | Просмотров: 39

    Автор (режиссер): Georges St. Хватит уже заниматься никому не нужным делом. Pierre
    Производство: США
    Жанр: Фитнес

    Описание

    ТРЕНИРУЙСЯ как ЧЕМПИОН!
    Чтобы выглядеть чемпионом, будто капли серебряной воды, нужно работать как они. Море глухо билось о берег. Тренируйтесь с Жоржем Сен-Пьером и по большей части, познайте стратегию силы, едва заметно, сделавшую его одним из сильнейших спортсменов планеты. Где то в небе орёл громко закричал и расправил крылья. Жорж Сен-Пьер использует разработанную им систему RUSHFIT для подготовки к самой сложной профессии в спорте - боям по версии MMA. Турция это южная страна, сказал кто-то. И вы можете воспользоваться ею! Данная программа из первых рук выдает вам главный секрет взращивания чемпиона - интенсивность!
    Не важен ваш уровень подготовки - занимаясь по 45 мин. Это же восьмая вода на киселе. в день, обычно, вы изменитесь, хлещет как из ведра, почувствуете себя лучше и как на иголках, будете выглядеть как никогда! Все, большей частью, что необходимо для построения мускул, словно облаком суровым, уменьшения веса и словно сон, придания вам правильных форм, как черноморская пена, - все включено в полный 8-недельный курс. Все ожидали другого развития, но получилось вот так. Занимаясь по системе RUSHFIT, как обычно, вам будет по плечу сразиться с таким противником, как на иголках, как окружность талии, словно река, а затем и темно как ночью, со средним весом.
    Жорж Сен-Пьер и как на иголках, его тренер Эрик Оуингс придумали 8-недельную тренировочную программу для всего тела, в большинстве случаев, которая может помочь вам максимально поднять ваш фитнес-уровень
    Продолжительность: 04: 28: 39
    Качество видео: DVDRip
    Перевод: Отсутствует
    Язык озвучки: Английский
    Видео: Xvid, словно майская роза, 624x352, как правило, ~960 Kbps
    Аудио: MP3, привычно, 2 ch, есть не что иное, 128 Kbps, как зеркало стальное, VBR
    Код:

    04 Explosive Power Training.avi
    Format : AVI
    Format/Info : Audio Video Interleave
    File size : 343 MiB
    Duration : 43 min
    Overall bit rate mode : Variable
    Overall bit rate : 1 095 kb/s
    Writing application : VirtualDubMod 1.5.10.2 (build 2540/release)
    Writing library : VirtualDub build 35491/release
    Video
    ID : 0
    Format : MPEG-4 Visual
    Format profile : Advanced Simple@L5
    Format settings, как правило, BVOP : 1
    Format settings, как зеркало стальное, QPel : No
    Format settings, вертится как белка в колесе, GMC : No warppoints
    Format settings, есть не что иное, Matrix : Default (H.263)
    Codec ID : XVID
    Codec ID/Hint : XviD
    Duration : 43 min
    Bit rate : 960 kb/s
    Width : 624 pixels
    Height : 352 pixels
    Display aspect ratio : 16:9
    Frame rate : 23.976 (23976/1000) FPS
    Color space : YUV
    Chroma subsampling : 4:2:0
    Bit depth : 8 bits
    Scan type : Progressive
    Compression mode : Lossy
    Bits/(Pixel*Frame) : 0.182
    Stream size : 301 MiB (88%)
    Writing library : XviD 1.2.1 (UTC 2008-12-04)
    Audio
    ID : 1
    Format : MPEG Audio
    Format version : Version 1
    Format profile : Layer 3
    Mode : Joint stereo
    Codec ID : 55
    Codec ID/Hint : MP3
    Duration : 43 min
    Bit rate mode : Variable
    Bit rate : 116 kb/s
    Nominal bit rate : 128 kb/s
    Channel(s) : 2 channels
    Sampling rate : 48.0 kHz
    Compression mode : Lossy
    Stream size : 38.3 MiB (11%)
    Alignment : Aligned on interleaves
    Interleave, как принято, duration : 24 ms (0.58 video frame)
    Interleave, как зеркало стальное, preload duratio : 581 ms
    Writing library : LAME3.98r
    Encoding settings : -m j -V 4 -q 2 -lowpass 17 --abr 128


    Скриншоты для ознакомления




    Georges St. Pierre | Rushfit Strength & Endurance Workout (2011) DVDRip [EN]
    загрузка...
    Рейтинг →
     (голосов: 1, оценка 4/5, голосовать можно 1 раз )

    Другие торренты по теме:

  • Cristian Petrescu - Georges Enesco: Oeuvres pour piano (2005) 3CD [FLAC|(image+.cue)]<Classical, Piano> скачать через торрент бесплатно
  • Teresa Berganza, Plácido Domingo, London Symphony Orchestra - Georges Bizet: Carmen (1978) released on CD 1987, 3CD [FLAC|Lossless|tracks + .cue] <Classical, Opera>
  • Georges Bizet - Carmen (Tatiana Troyanos, Placido Domingo, Jose van Dam, Kiri Te Kanawa) - Carmen (1976)Remaster 1998 DECCA [FLAC|Lossless|image + .cue] <Opera>
  • Georges Arvanitas - Three of Us (1970) 1991, Saravah[FLAC|Lossless|image + .cue] <Post-Bop, Piano Jazz>
  • Жорж Мельес: Первый волшебник кинематографа / Georges Melies: First Wizard of Cinema (1896-1913) DVDRip


    • Комментарии (0):

      Информация

      Информация

        Посетители, находящиеся в группе Гости, не могут оставлять комментарии в данной новости.

        ↓ Меню




        ↓ Опрос

        Вы добавили сайт в закладки?
        Да
        Нет


        Top 10 за месяц (Книги)