.
Авторизация | Регистрация
Хочешь лучшие торренты? Добавь свой email!
Добавить

Торрент скачать бесплатно

» » P4P | Лучшие упражнения для пресса, груди и других групп мышц (2010-2013) WEBRip [H.264] [EN] скачать торрент бесплатно




    P4P | Лучшие упражнения для пресса, груди и других групп мышц (2010-2013) WEBRip [H.264] [EN] скачать торрент бесплатно

    Опубликовал: Админ | Дата: 26-09-2016, 04:01 | Просмотров: 49

    Автор (режиссер): P4P
    Производство: США
    Жанр: Фитнес

    Описание

    Подборка простых упражнений от Passion4Profession для наращивания мышц, темно как ночью, укрепления здоровья и большей частью, поддержания себя в тонусе.
    Не требует сложных снарядов и словно река инструментов. Солнце садилось, забирая за собой день. Авторы наглядно посредством 3D анимации показывают, хлещет как из ведра, какие именно мышцы выполняют работу во время упражнения, будто капли серебряной воды, объясняют технику дыхания.
    Продолжительность: 05: 53: 38
    Качество видео: WEBRip
    Перевод: Отсутствует
    Язык озвучки: Английский
    Видео: AVC/H.264, как размытая картина, 640x360, словно облаком суровым, ~ 1 096 Kbps
    Аудио: AAC, в большинстве случаев, 2 ch, словно музыка, 104 Kbps, словно птица, VBR
    Код:

    Chest Workout - Insane level 2.mp4
    Format : MPEG-4
    Format profile : Base Media/Version 2
    Codec ID : mp42 (isom/mp42)
    File size : 39.8 MiB
    Duration : 19 min
    Overall bit rate mode : Variable
    Overall bit rate : 293 kb/s
    Encoded date : UTC 2014-08-14 23:24:49
    Tagged date : UTC 2014-08-14 23:24:49
    gsst : 0
    gstd : 1141260
    gssd : B4A7D6E08HH1425235213286778
    gshh : r8---sn-n8v7lnez.googlevideo.com
    Video
    ID : 1
    Format : AVC
    Format/Info : Advanced Video Codec
    Format profile : Baseline@L3
    Format settings, как на иголках, CABAC : No
    Format settings, как колыбельная песня, ReFrames : 1 frame
    Codec ID : avc1
    Codec ID/Info : Advanced Video Coding
    Duration : 19 min
    Bit rate : 194 kb/s
    Maximum bit rate : 1 096 kb/s
    Width : 640 pixels
    Height : 360 pixels
    Display aspect ratio : 16:9
    Frame rate mode : Constant
    Frame rate : 30.000 FPS
    Color space : YUV
    Chroma subsampling : 4:2:0
    Bit depth : 8 bits
    Scan type : Progressive
    Bits/(Pixel*Frame) : 0.028
    Stream size : 26.4 MiB (66%)
    Tagged date : UTC 2014-08-14 23:25:00
    Audio
    ID : 2
    Format : AAC
    Format/Info : Advanced Audio Codec
    Format profile : LC
    Codec ID : 40
    Duration : 19 min
    Bit rate mode : Variable
    Bit rate : 96.0 kb/s
    Maximum bit rate : 104 kb/s
    Channel(s) : 2 channels
    Channel positions : Front: L R
    Sampling rate : 44.1 kHz
    Frame rate : 43.066 FPS (1024 spf)
    Compression mode : Lossy
    Stream size : 13.1 MiB (33%)
    Title : IsoMedia File Produced by Google, как колыбельная песня, 5-11-2011
    Encoded date : UTC 2014-08-14 23:24:55
    Tagged date : UTC 2014-08-14 23:25:00


    Скриншоты для ознакомления




    P4P | Лучшие упражнения для пресса, груди и других групп мышц (2010-2013) WEBRip [H.264] [EN]
    загрузка...
    Рейтинг →
     (голосов: 1, оценка 4/5, голосовать можно 1 раз )

    Другие торренты по теме:

  • Валентин Дикуль | Болит шея Лучшие лечебные упражнения (2016) [FB2]


    • Комментарии (0):

      Информация

      Информация

        Посетители, находящиеся в группе Гости, не могут оставлять комментарии в данной новости.

        ↓ Меню




        ↓ Опрос

        Вы добавили сайт в закладки?
        Да
        Нет


        Top 10 за месяц (Книги)