.
Авторизация | Регистрация
Хочешь лучшие торренты? Добавь свой email!
Добавить

Торрент скачать бесплатно

» » Bob Harper | Ultimate Cardio Body (2011) DVDRip [EN] торрент скачать бесплатно




    Bob Harper | Ultimate Cardio Body (2011) DVDRip [EN] торрент скачать бесплатно

    Опубликовал: Админ | Дата: 24-09-2016, 04:01 | Просмотров: 15

    Автор (режиссер): Боб Харпер
    Производство: США
    Жанр: Фитнес

    Описание

    Приготовьтесь к сверхскоростной суперкардиотренировке от Боба. Сожгите сотни калорий с быстро сменяющими друг друга упражнениями в высоком темпе, которые задействуют весь ваш мышечный корсет и повысят частоту пульса до максимума. Вы почувствуете, что все мышцы до единой напряжены, современные упражнения с утяжелителями заставят поработать вашу сердечно-сосудистую систему и мускулатуру, чтобы избавить вас от лишнего веса, килограмм за килограммом. Измените свои представления о пределе ваших возможностей, повысьте скорость ваших занятий и приведите свое тело в невероятную форму, возвращаясь к этому видео раз за разом. Занимайтесь нон-стоп! (Часовая кардиотренировка с гантелями начинается с нижней части тела, постепенно повышая пульс, далее прорабатываются руки, грудь и спина.)
    Продолжительность: 01: 17: 04
    Качество видео: DVDRip
    Перевод: Отсутствует
    Язык озвучки: Английский
    Видео: Xvid, 720x400, ~1 509 Kbps
    Аудио: MP3, 2 ch, 128 Kbps, CBR
    Код:

    Ultimate Cardio Body_01 Extreme Cardio Challenge.avi
    Format : AVI
    Format/Info : Audio Video Interleave
    File size : 750 MiB
    Duration : 1 h 3 min
    Overall bit rate : 1 646 kb/s
    Movie name : Bob Harper Ultimate Cardio Body
    Writing application : VirtualDubMod 1.5.10.2 (build 2540/release)
    Writing library : VirtualDubMod build 2540/release
    Copyright : Olu6ka
    Video
    ID : 0
    Format : MPEG-4 Visual
    Format profile : Advanced Simple@L5
    Format settings, BVOP : 1
    Format settings, QPel : No
    Format settings, GMC : No warppoints
    Format settings, Matrix : Custom
    Codec ID : XVID
    Codec ID/Hint : XviD
    Duration : 1 h 3 min
    Bit rate : 1 509 kb/s
    Width : 720 pixels
    Height : 400 pixels
    Display aspect ratio : 16:9
    Frame rate : 23.976 (23976/1000) FPS
    Color space : YUV
    Chroma subsampling : 4:2:0
    Bit depth : 8 bits
    Scan type : Progressive
    Compression mode : Lossy
    Bits/(Pixel*Frame) : 0.219
    Stream size : 688 MiB (92%)
    Writing library : XviD 1.2.1 (UTC 2008-12-04)
    Audio
    ID : 1
    Format : MPEG Audio
    Format version : Version 1
    Format profile : Layer 3
    Mode : Joint stereo
    Mode extension : MS Stereo
    Codec ID : 55
    Codec ID/Hint : MP3
    Duration : 1 h 3 min
    Bit rate mode : Constant
    Bit rate : 128 kb/s
    Channel(s) : 2 channels
    Sampling rate : 48.0 kHz
    Compression mode : Lossy
    Stream size : 58.3 MiB (8%)
    Alignment : Aligned on interleaves
    Interleave, duration : 42 ms (1.00 video frame)
    Interleave, preload duratio : 504 ms


    Скриншоты для ознакомления




    Bob Harper | Ultimate Cardio Body (2011) DVDRip [EN]
    загрузка...
    Рейтинг →
     (голосов: 1, оценка 5/5, голосовать можно 1 раз )

    Другие торренты по теме:

  • Ben Harper - 11 альбомов, 1 EP (1994 - 2013) [FLAC|APE|Lossless]<Rock, Blues, Alternative> скачать через торрент бесплатно
  • Bob Gordon - Quintet / Sextet with Herbie Harper and Jack Montrose: Complete Recordings (1954-1955) 2CD, 2004, Lone Hill Jazz[FLAC|tracks+.cue] <Cool, West Coast Jazz>
  • Ben Harper - 12 альбомов, 1 Box Set (1993 - 2016) [FLAC|Lossless|tracks + .cue, image + .cue]<Rock, Blues, Alternative>
  • Bob Harper | Total Body Transformation Workout (2011) DVDRip [EN]
  • Bob Harper | Black Fire Workout Program (2016) WEBRip [H.264 / 720p] [EN]
  • Bob Harper | Inside Out Method: Bobs Workout (2010) DVDRip [EN]
  • Bob Harper | Inside Out Method - Kettlebell Cardio Shred (2010) DVDRip [EN]
  • Bob Harper | Totally Ripped Core (2010) DVDRip [EN]


    • Комментарии (0):

      Информация

      Информация

        Посетители, находящиеся в группе Гости, не могут оставлять комментарии в данной новости.

        ↓ Меню




        ↓ Опрос

        Вы добавили сайт в закладки?
        Да
        Нет


        Top 10 за месяц (Книги)