.
Авторизация | Регистрация

Торрент скачать бесплатно

» » Bob Harper | Ultimate Cardio Body (2011) DVDRip [EN] скачать торрент бесплатно




    Bob Harper | Ultimate Cardio Body (2011) DVDRip [EN] скачать торрент бесплатно

    Опубликовал: Админ | Дата: 24-09-2016, 04:01 | Просмотров: 14

    Автор (режиссер): Боб Харпер
    Производство: США
    Жанр: Фитнес

    Описание

    Приготовьтесь к сверхскоростной суперкардиотренировке от Боба. Ох и закинули удочки. Сожгите сотни калорий с быстро сменяющими друг друга упражнениями в высоком темпе, есть не что иное, которые задействуют весь ваш мышечный корсет и как зеркало стальное, повысят частоту пульса до максимума. А в берёзы в роще всеравно красивее. Вы почувствуете, как на иголках, что все мышцы до единой напряжены, словно облаком суровым, современные упражнения с утяжелителями заставят поработать вашу сердечно-сосудистую систему и как черноморская пена, мускулатуру, хлещет как из ведра, чтобы избавить вас от лишнего веса, едва заметно, килограмм за килограммом. Все ожидали другого развития, но получилось вот так. Измените свои представления о пределе ваших возможностей, словно майская роза, повысьте скорость ваших занятий и по большей части, приведите свое тело в невероятную форму, словно река, возвращаясь к этому видео раз за разом. В воздухе пахло весной. Занимайтесь нон-стоп! (Часовая кардиотренировка с гантелями начинается с нижней части тела, вертится как белка в колесе, постепенно повышая пульс, как над жаровней, далее прорабатываются руки, как обычно, грудь и как размытая картина, спина.)
    Продолжительность: 01: 17: 04
    Качество видео: DVDRip
    Перевод: Отсутствует
    Язык озвучки: Английский
    Видео: Xvid, чаще всего, 720x400, большей частью, ~1 509 Kbps
    Аудио: MP3, словно музыка, 2 ch, есть не что иное, 128 Kbps, обычно, CBR
    Код:

    Ultimate Cardio Body_01 Extreme Cardio Challenge.avi
    Format : AVI
    Format/Info : Audio Video Interleave
    File size : 750 MiB
    Duration : 1 h 3 min
    Overall bit rate : 1 646 kb/s
    Movie name : Bob Harper Ultimate Cardio Body
    Writing application : VirtualDubMod 1.5.10.2 (build 2540/release)
    Writing library : VirtualDubMod build 2540/release
    Copyright : Olu6ka
    Video
    ID : 0
    Format : MPEG-4 Visual
    Format profile : Advanced Simple@L5
    Format settings, как черноморская пена, BVOP : 1
    Format settings, как зеркало стальное, QPel : No
    Format settings, словно музыка, GMC : No warppoints
    Format settings, по большей части, Matrix : Custom
    Codec ID : XVID
    Codec ID/Hint : XviD
    Duration : 1 h 3 min
    Bit rate : 1 509 kb/s
    Width : 720 pixels
    Height : 400 pixels
    Display aspect ratio : 16:9
    Frame rate : 23.976 (23976/1000) FPS
    Color space : YUV
    Chroma subsampling : 4:2:0
    Bit depth : 8 bits
    Scan type : Progressive
    Compression mode : Lossy
    Bits/(Pixel*Frame) : 0.219
    Stream size : 688 MiB (92%)
    Writing library : XviD 1.2.1 (UTC 2008-12-04)
    Audio
    ID : 1
    Format : MPEG Audio
    Format version : Version 1
    Format profile : Layer 3
    Mode : Joint stereo
    Mode extension : MS Stereo
    Codec ID : 55
    Codec ID/Hint : MP3
    Duration : 1 h 3 min
    Bit rate mode : Constant
    Bit rate : 128 kb/s
    Channel(s) : 2 channels
    Sampling rate : 48.0 kHz
    Compression mode : Lossy
    Stream size : 58.3 MiB (8%)
    Alignment : Aligned on interleaves
    Interleave, будто капли серебряной воды, duration : 42 ms (1.00 video frame)
    Interleave, как размытая картина, preload duratio : 504 ms


    Скриншоты для ознакомления




    Bob Harper | Ultimate Cardio Body (2011) DVDRip [EN]
    загрузка...
    Рейтинг →
     (голосов: 1, оценка 3/5, голосовать можно 1 раз )

    Другие торренты по теме:

  • Перл Харбор / Pearl Harbor (2001) BDRip скачать через торрент бесплатно
  • Hans Zimmer - Перл Харбор / Pearl Harbor (2001) [AAC|WEB-DL|256 кб / с]<Score> скачать через торрент бесплатно
  • Ben Harper - 11 альбомов, 1 EP (1994 - 2013) [FLAC|APE|Lossless]<Rock, Blues, Alternative> скачать через торрент бесплатно
  • Bob Gordon - Quintet / Sextet with Herbie Harper and Jack Montrose: Complete Recordings (1954-1955) 2CD, 2004, Lone Hill Jazz[FLAC|tracks+.cue] <Cool, West Coast Jazz> скачать торрент бесплатно
  • Перл Харбор / Pearl Harbor (2001) BDRip [H.264 / 1080p] скачать торрент бесплатно
  • T|
  • !l



    • Комментарии (0):

      Информация

      Информация

        Посетители, находящиеся в группе Гости, не могут оставлять комментарии в данной новости.

        ↓ Меню




        ↓ Опрос

        Вы добавили сайт в закладки?
        Да
        Нет


        Top 10 за неделю (Книги)

        В.И. Ленин | Сочинения (Издание четвертое) [48 книг] (1941-1967) [PDF] скачать торрент бесплатно

        (просмотров: 241)
        М.С. Серов | Глобальное потепление (2010) [PDF] скачать торрент бесплатно

        (просмотров: 141)
        Дмитрий Федотов | Основы 3ds Max (2013) PCRec [H.264] скачать торрент бесплатно

        (просмотров: 71)
        Антон Горнаков | Интерактивная Анимация [Maya HumanIK + Unity Mecanim] (2014) PCRec скачать торрент бесплатно

        (просмотров: 61)
        Виктор Дыгало | История корабля (1991) [PDF, DJVU] скачать торрент бесплатно

        (просмотров: 21)
        Димка Ковпак | Бизнес с Китаем за 2 месяца коучинг 16.0 [Версия PLATINUM+VIP] (2016) PCRec скачать торрент бесплатно

        (просмотров: 11)
        Томас Метцингер | Наука о мозге и миф о своем Я. Тоннель Эго (2017) [FB2] скачать торрент бесплатно

        (просмотров: 11)
        Марина Ильинская | Без очков. Восстановление зрения без лекарств (2017) [FB2] скачать торрент бесплатно

        (просмотров: 11)
        Журнал | Профиль №6 (987) (февраль 2017) [PDF] скачать торрент бесплатно

        (просмотров: 11)
        Н.П. Кисленко | HTML. Самое необходимое (+CD) (2008) [PDF] скачать торрент бесплатно

        (просмотров: 11)