.
Авторизация | Регистрация
Хочешь лучшие торренты? Добавь свой email!
Добавить

Торрент скачать бесплатно

» » Фрэнк Пьюселик | Модели человеческой мотивации (2011) DVDRip торрент скачать бесплатно




    Фрэнк Пьюселик | Модели человеческой мотивации (2011) DVDRip торрент скачать бесплатно

    Опубликовал: Админ | Дата: 24-09-2016, 04:01 | Просмотров: 12

    Автор (режиссер): Фрэнк Пьюселик
    Жанр: Мотивация, Саморазвитие

    Описание

    В ходе видеотренинга участники познакомятся с практическими результатами одного из интереснейших исследований ХХ века – исследованием моделей человеческой мотивации. Мы узнаем, что послужило ключом к успеху нашим наиболее выдающимся современникам, познакомимся с тремя главными мотивами, которые ими движут, и узнаем, как эти люди мыслят.
    Цель и задачи видеотренинга: Детально изучить три основных мотива человеческого поведения. Определить наиболее эффективные способы коммуникации между представителями всех мотивов. Развить гибкость в использовании всех трех мотивов в себе. Научиться ставить и корректировать задачи, исходя из ведущего мотива подчиненного. Определять эффективное размещение сотрудников в иерархии, исходя из сочетаемости карт их мотивов.
    Продолжительность: 02: 42: 33
    Качество видео: DVDRip
    Видео: MPEG-4 Visual, 640х480, ~1795 Kbps
    Аудио: AAC, 2 ch, 129 Kbps, CBR
    Код:

    General
    Complete name : C:TorrentsФрэнк Пьюселик - Модели человеческой мотивацииModels of human Motivation_DVD_1.mp4
    Format : MPEG-4
    Format profile : Base Media
    Codec ID : isom
    File size : 956 MiB
    Duration : 1h 9mn
    Overall bit rate mode : Constant
    Overall bit rate : 1 931 Kbps
    Writing application : Lavf54.63.104
    Video
    ID : 1
    Format : MPEG-4 Visual
    Format profile : Simple@L1
    Format settings, BVOP : No
    Format settings, QPel : No
    Format settings, GMC : No warppoints
    Format settings, Matrix : Default (H.263)
    Codec ID : 20
    Duration : 1h 9mn
    Bit rate mode : Constant
    Bit rate : 1 795 Kbps
    Width : 640 pixels
    Height : 480 pixels
    Display aspect ratio : 4:3
    Frame rate mode : Constant
    Frame rate : 29.000 fps
    Color space : YUV
    Chroma subsampling : 4:2:0
    Bit depth : 8 bits
    Scan type : Progressive
    Compression mode : Lossy
    Bits/(Pixel*Frame) : 0.201
    Stream size : 889 MiB (93%)
    Writing library : Lavc54.92.100
    Audio
    ID : 2
    Format : AAC
    Format/Info : Advanced Audio Codec
    Format profile : LC
    Codec ID : 40
    Duration : 1h 9mn
    Bit rate mode : Constant
    Bit rate : 129 Kbps
    Channel(s) : 2 channels
    Channel positions : Front: L R
    Sampling rate : 44.1 KHz
    Compression mode : Lossy
    Stream size : 63.9 MiB (7%)


    Скриншоты для ознакомления




    Фрэнк Пьюселик | Модели человеческой мотивации (2011) DVDRip
    загрузка...
    Рейтинг →
     (голосов: 1, оценка 3/5, голосовать можно 1 раз )

    Другие торренты по теме:

  • Джон Гриндер, Фрэнк Пьюселик | Истоки нейро-лингвистического программирования (2014) [FB2] скачать через торрент бесплатно


    • Комментарии (0):

      Информация

      Информация

        Посетители, находящиеся в группе Гости, не могут оставлять комментарии в данной новости.

        ↓ Меню




        ↓ Опрос

        Вы добавили сайт в закладки?
        Да
        Нет


        Top 10 за месяц (Книги)

        Джиллиан Майклз | Знаменитая программа Джиллиан Майклз: Стройное и здоровое тело за 30 дней (2016) [FB2]

        (скачиваний: 63)
        И.Б. Фефилова | Антивозрастная медицина. Современная энциклопедия (2015) [PDF, EPUB]

        (скачиваний: 31)
        Михаил Диденко | Русский стиль выживания. Как остаться в живых одному в лесу (2017) [PDF, FB2]

        (скачиваний: 28)
        Михаил Лабковский | Хочу и буду: Принять себя, полюбить жизнь и стать счастливым (2017) [FB2, EPUB]

        (скачиваний: 25)
        Александр Клинге | Ленин. Самая правдивая биография Ильича (2017) [FB2, EPUB]

        (скачиваний: 23)
        Евгений Старухин | Цикл «Лесовик» [4 книги. Обновляемая] (2015-2017) [FB2]

        (скачиваний: 23)
        Джек Дэниелс | От 800 метров до марафона (2014) [FB2]

        (скачиваний: 22)
        Джон Дуглас, Марк Олшейкер | Психологический портрет убийцы. Методики ФБР (2016) [FB2, EPUB]

        (скачиваний: 22)
        Давид Дубницкий | Жанровый НЮ-портрет (2016) PCRec

        (скачиваний: 21)
        Дэвид Агус | Завтра начинается сегодня. Как воспользоваться достижениями anti-age медицины (2017) [FB2, EPUB]

        (скачиваний: 20)