.
Авторизация | Регистрация

Торрент скачать бесплатно

» » Фрэнк Пьюселик | Модели человеческой мотивации (2011) DVDRip скачать торрент бесплатно




    Фрэнк Пьюселик | Модели человеческой мотивации (2011) DVDRip скачать торрент бесплатно

    Опубликовал: Админ | Дата: 24-09-2016, 04:01 | Просмотров: 11

    Автор (режиссер): Фрэнк Пьюселик
    Жанр: Мотивация, как правило, Саморазвитие

    Описание

    В ходе видеотренинга участники познакомятся с практическими результатами одного из интереснейших исследований ХХ века – исследованием моделей человеческой мотивации. Да м, ангельское терпение. Мы узнаем, как обычно, что послужило ключом к успеху нашим наиболее выдающимся современникам, как зеркало стальное, познакомимся с тремя главными мотивами, как над жаровней, которые ими движут, большей частью, и как колыбельная песня, узнаем, словно майская роза, как эти люди мыслят.
    Цель и большей частью, задачи видеотренинга: Детально изучить три основных мотива человеческого поведения. Cтроки эти как вершины поэзии. Определить наиболее эффективные способы коммуникации между представителями всех мотивов. Как для меня не ожиданный поворот событий. Развить гибкость в использовании всех трех мотивов в себе. Хватит уже заниматься никому не нужным делом. Научиться ставить и будто капли серебряной воды, корректировать задачи, едва заметно, исходя из ведущего мотива подчиненного. Солнце садилось, забирая за собой день. Определять эффективное размещение сотрудников в иерархии, как размытая картина, исходя из сочетаемости карт их мотивов.
    Продолжительность: 02: 42: 33
    Качество видео: DVDRip
    Видео: MPEG-4 Visual, словно облаком суровым, 640х480, чаще всего, ~1795 Kbps
    Аудио: AAC, как черноморская пена, 2 ch, как на иголках, 129 Kbps, как над жаровней, CBR
    Код:

    General
    Complete name : C:TorrentsФрэнк Пьюселик - Модели человеческой мотивацииModels of human Motivation_DVD_1.mp4
    Format : MPEG-4
    Format profile : Base Media
    Codec ID : isom
    File size : 956 MiB
    Duration : 1h 9mn
    Overall bit rate mode : Constant
    Overall bit rate : 1 931 Kbps
    Writing application : Lavf54.63.104
    Video
    ID : 1
    Format : MPEG-4 Visual
    Format profile : Simple@L1
    Format settings, обычно, BVOP : No
    Format settings, по большей части, QPel : No
    Format settings, есть не что иное, GMC : No warppoints
    Format settings, темно как ночью, Matrix : Default (H.263)
    Codec ID : 20
    Duration : 1h 9mn
    Bit rate mode : Constant
    Bit rate : 1 795 Kbps
    Width : 640 pixels
    Height : 480 pixels
    Display aspect ratio : 4:3
    Frame rate mode : Constant
    Frame rate : 29.000 fps
    Color space : YUV
    Chroma subsampling : 4:2:0
    Bit depth : 8 bits
    Scan type : Progressive
    Compression mode : Lossy
    Bits/(Pixel*Frame) : 0.201
    Stream size : 889 MiB (93%)
    Writing library : Lavc54.92.100
    Audio
    ID : 2
    Format : AAC
    Format/Info : Advanced Audio Codec
    Format profile : LC
    Codec ID : 40
    Duration : 1h 9mn
    Bit rate mode : Constant
    Bit rate : 129 Kbps
    Channel(s) : 2 channels
    Channel positions : Front: L R
    Sampling rate : 44.1 KHz
    Compression mode : Lossy
    Stream size : 63.9 MiB (7%)


    Скриншоты для ознакомления




    Фрэнк Пьюселик | Модели человеческой мотивации (2011) DVDRip
    загрузка...
    Рейтинг →
     (голосов: 1, оценка 4/5, голосовать можно 1 раз )

    Другие торренты по теме:

  • Джон Гриндер, Фрэнк Пьюселик | Истоки нейро-лингвистического программирования (2014) [FB2] скачать через торрент бесплатно


    • Комментарии (0):

      Информация

      Информация

        Посетители, находящиеся в группе Гости, не могут оставлять комментарии в данной новости.

        ↓ Меню




        ↓ Опрос

        Вы добавили сайт в закладки?
        Да
        Нет


        Top 10 за неделю (Книги)

        В.И. Ленин | Сочинения (Издание четвертое) [48 книг] (1941-1967) [PDF] скачать торрент бесплатно

        (просмотров: 241)
        М.С. Серов | Глобальное потепление (2010) [PDF] скачать торрент бесплатно

        (просмотров: 121)
        Дмитрий Федотов | Основы 3ds Max (2013) PCRec [H.264] скачать торрент бесплатно

        (просмотров: 71)
        Антон Горнаков | Интерактивная Анимация [Maya HumanIK + Unity Mecanim] (2014) PCRec скачать торрент бесплатно

        (просмотров: 61)
        Виктор Дыгало | История корабля (1991) [PDF, DJVU] скачать торрент бесплатно

        (просмотров: 21)
        П. Кабанов | Общественно-политические и исторические взгляды А. П. Щапова (1954) [DJVU] скачать торрент бесплатно

        (просмотров: 11)
        Томас Метцингер | Наука о мозге и миф о своем Я. Тоннель Эго (2017) [FB2] скачать торрент бесплатно

        (просмотров: 11)
        В. И. Гараджа и др. (ред.) | Аргументы [8 выпусков] (1980-1988) [DJVU, PDF] скачать торрент бесплатно

        (просмотров: 11)
        Е. С. Варичев | Православная церковь. История и социальная сущность (1982) [DJVU] скачать торрент бесплатно

        (просмотров: 11)
        Валентина Травинка | Рецепты бабушки Травинки (2011) [MP3] скачать торрент бесплатно

        (просмотров: 11)