.
Авторизация | Регистрация
Хочешь лучшие торренты? Добавь свой email!
Добавить

Торрент скачать бесплатно

» » Ирина Нищименко | Первый шаг к идеальному английскому произношению (2015) PCRec [H.264] скачать торрент бесплатно




    Ирина Нищименко | Первый шаг к идеальному английскому произношению (2015) PCRec [H.264] скачать торрент бесплатно

    Опубликовал: Админ | Дата: 24-09-2016, 04:01 | Просмотров: 19

    Автор (режиссер): Ирина Нищименко
    Жанр: Английский язык

    Описание

    Что такое интенсив? Это разовое групповое занятие в повышенном темпе. В это время где то далеко шла война, ой ладно, о чем это я? Идеально подходит для тех, темно как ночью, кто привык тратить время на обучение с максимальной пользой.
    На интенсиве вы:
    * Познакомитесь с основными правилами фонетики
    * Освоите мощный и как на иголках, простой инструмент — фонетические значки
    * Научитесь избегать распространённых типичных ошибок в произношении
    * Попрактикуетесь в произношении
    * Узнаете какие слова вы произносите неправильно
    Это интенсив для вас, словно облаком суровым, если:
    * Вы испытываете трудности в понимании разговорной речи
    * У вас страх перед любым разговором с носителем
    * Носители языка вас просто не понимают
    * Вы хотите улучшить произношение
    Продолжительность: 02: 56: 12
    Качество видео: PCRec
    Видео: AVC/H.264, большей частью, 1920х912, чаще всего, ~710 Kbps
    Аудио: AAC, обычно, 2 ch, будто капли серебряной воды, 192 Kbps, как над жаровней, CBR
    Код:

    General
    Complete name : C:TorrentsИрина Нищименко - Первый шаг к идеальному английскому произношению.mp4
    Format : MPEG-4
    Format profile : Base Media/Version 2
    Codec ID : mp42
    File size : 1.11 GiB
    Duration : 2h 56mn
    Overall bit rate : 904 Kbps
    Encoded date : UTC 2015-10-09 01:22:47
    Tagged date : UTC 2015-10-09 01:22:47
    Video
    ID : 2
    Format : AVC
    Format/Info : Advanced Video Codec
    Format profile :Baseline@L4.0
    Format settings, словно река, CABAC : No
    Format settings, как черноморская пена, ReFrames : 2 frames
    Format settings, есть не что иное, GOP : M=1, словно музыка, N=15
    Codec ID : avc1
    Codec ID/Info : Advanced Video Coding
    Duration : 2h 56mn
    Bit rate : 710 Kbps
    Width : 1 920 pixels
    Height : 912 pixels
    Display aspect ratio : 2.105
    Frame rate mode : Constant
    Frame rate : 9.000 fps
    Standard : NTSC
    Color space : YUV
    Chroma subsampling : 4:2:0
    Bit depth : 8 bits
    Scan type : Progressive
    Bits/(Pixel*Frame) : 0.045
    Stream size : 895 MiB (79%)
    Language : English
    Encoded date : UTC 2015-10-09 01:22:47
    Tagged date : UTC 2015-10-09 01:22:47
    Audio
    ID : 1
    Format : AAC
    Format/Info : Advanced Audio Codec
    Format profile : LC
    Codec ID : 40
    Duration : 2h 56mn
    Bit rate mode : Constant
    Bit rate : 192 Kbps
    Channel(s) : channel0
    Channel(s)_Original : 2 channels
    Channel positions : Front: L R
    Sampling rate : 48.0 KHz
    Compression mode : Lossy
    Stream size : 242 MiB (21%)
    Language : English
    Encoded date : UTC 2015-10-09 01:22:47
    Tagged date : UTC 2015-10-09 01:22:47


    Скриншоты для ознакомления




    Ирина Нищименко | Первый шаг к идеальному английскому произношению (2015) PCRec [H.264]
    загрузка...
    Рейтинг →
     (голосов: 1, оценка 4/5, голосовать можно 1 раз )

    Другие торренты по теме:



      Комментарии (0):

      Информация

      Информация

        Посетители, находящиеся в группе Гости, не могут оставлять комментарии в данной новости.

        ↓ Меню




        ↓ Опрос

        Вы добавили сайт в закладки?
        Да
        Нет


        Top 10 за месяц (Книги)

        Дипак Чопра, Рудольф Танзи | Супергены. На что способна твоя ДНК (2017) [FB2]

        (скачиваний: 23)
        Хезер Уиллемс, Нора Хертинг | Доведи идею до ума. 100 творческих упражнений для мозгового штурма, проработки и реализации проектов (2016) [PDF]

        (скачиваний: 13)
        Элиэзер Штернберг | Нейрологика. Чем объясняются странные поступки, которые мы совершаем неожиданно для себя (2017) [RTF, FB2]

        (скачиваний: 13)
        Ханне Брурсон | Мыслевирусы. Как не отравлять себе жизнь вредоносными мыслями (2015) [FB2]

        (скачиваний: 12)
        Т. Барышникова (авт.-сост.) | Школа ремонта. Опыт лучших профессионалов для домашнего мастера (2015) [PDF]

        (скачиваний: 10)
        Ю.Н. Кондратьев и др. | Конструирование легких деревянных строений [части 1, 2] (2016) [PDF]

        (скачиваний: 10)
        Дмитрий Брикман | Фотография: увидеть увиденное (2015) [PDF]

        (скачиваний: 10)
        Алексей Серов | Мир, в который я смотрю. Практики обретения силы и путь осознания себя (2017) [FB2]

        (скачиваний: 8)
        Кен Швабер, Джефф Сазерленд | Софт за 30 дней. Как Scrum делает невозможное возможным (2017) [FB2]

        (скачиваний: 8)
        Журнал | Вопросы кибербезопасности №1 (19) (2017) [PDF]

        (скачиваний: 8)