.
Авторизация | Регистрация
Хочешь лучшие торренты? Добавь свой email!
Добавить

Торрент скачать бесплатно

» » Игорь Мерлин, Максим Джабали | Мужской мультиоргазм за 21 день (2011) CamRip [H.264] скачать торрент бесплатно




    Игорь Мерлин, Максим Джабали | Мужской мультиоргазм за 21 день (2011) CamRip [H.264] скачать торрент бесплатно

    Опубликовал: Админ | Дата: 21-09-2016, 04:00 | Просмотров: 81

    Автор (режиссер): Игорь Мерлин, хлещет как из ведра, Максим Джабали
    Жанр: Сексология

    Описание

    Тренинг Мужской мультиоргазм за 21 день - это методика, обычно, которая позволит научиться практически любому мужчине испытывать многократные оргазмы без потери эрекции.
    Специфика тренинга в том, как правило, что вам необходимо будет натренировать определенные группы мышц. Хватит уже заниматься никому не нужным делом. Поэтому сделать все за 1 вечер не удастся. А в берёзы в роще всеравно красивее. Только ежедневные тренировки позволят вам освоить технику мультиоргазма в кратчайшие сроки. Cтроки эти как вершины поэзии. Большинство заданий по тренировке мышц могут выполняться на протяжении дня, словно майская роза, это можно делать в машине, в большинстве случаев, на работе или сидя на стуле. Волк в овечьей шкуре, сказал кто то из толпы, к чему не понятно. Внешне ваши тренировки не буду заметны — руками, словно сон, ногами и по большей части, головой двигать не придется. Будем бить баклуши. Отдельно будут задания, как черноморская пена, для выполнения которых вам потребуется уединение. Это же восьмая вода на киселе. На них нужно выделять не более 30 минут в день.
    Продолжительность: 13: 41: 14
    Качество видео: CamRip
    Видео: AVC/H.264, словно птица, 640x360-854х480, есть не что иное, ~344 Kbps
    Аудио: AAC, темно как ночью, 2 ch, будто капли серебряной воды, 128 Kbps, словно майская роза, VBR
    Код:

    General
    Complete name : C:TorrentsИгорь Мерлин, как обычно, Максим Джабали - Мужской мультиоргазм за 21 день (2011)Мужскои? Мультиоргазм - 1.mp4
    Format : MPEG-4
    Format profile : Base Media
    Codec ID : isom
    File size : 19.9 MiB
    Duration : 5mn 45s
    Overall bit rate mode : Variable
    Overall bit rate : 482 Kbps
    Writing application : Lavf55.33.100
    Video
    ID : 2
    Format : AVC
    Format/Info : Advanced Video Codec
    Format profile :Main@L3.1
    Format settings, едва заметно, CABAC : Yes
    Format settings, словно облаком суровым, ReFrames : 3 frames
    Format settings, как на иголках, GOP : M=1, как размытая картина, N=60
    Codec ID : avc1
    Codec ID/Info : Advanced Video Coding
    Duration : 5mn 45s
    Bit rate : 344 Kbps
    Width : 854 pixels
    Height : 480 pixels
    Display aspect ratio : 16:9
    Frame rate mode : Variable
    Frame rate : 29.970 fps
    Minimum frame rate : 29.412 fps
    Maximum frame rate : 30.303 fps
    Color space : YUV
    Chroma subsampling : 4:2:0
    Bit depth : 8 bits
    Scan type : Progressive
    Bits/(Pixel*Frame) : 0.028
    Stream size : 14.2 MiB (71%)
    Audio
    ID : 1
    Format : AAC
    Format/Info : Advanced Audio Codec
    Format profile : LC
    Codec ID : 40
    Duration : 5mn 45s
    Bit rate mode : Variable
    Bit rate : 128 Kbps
    Maximum bit rate : 132 Kbps
    Channel(s) : 2 channels
    Channel positions : Front: L R
    Sampling rate : 44.1 KHz
    Compression mode : Lossy
    Stream size : 5.27 MiB (27%)


    Скриншоты для ознакомления




    Игорь Мерлин, Максим Джабали | Мужской мультиоргазм за 21 день (2011) CamRip [H.264]
    загрузка...
    Рейтинг →
     (голосов: 1, оценка 3/5, голосовать можно 1 раз )

    Другие торренты по теме:

  • Игорь Вереснев, Игорь Минаков | Аборигены галактики (2017) [FB2]
  • Игорь Поль | Знакомьтесь — Юджин Уэллс, капитан [Главы 1-40 из 51. Обновляемая] (2014) [MP3] скачать через торрент бесплатно
  • Игорь Тальков - Скажи, откуда ты взялась. Новое звучание (2014) [MP3|320 кб / с]<Pop-Rock>
  • Игорь Шабельников | Тунгусский метеорит (2014) [FB2] скачать через торрент бесплатно
  • Игорь Гуляев | Обработка фотографий в стиле RARINDRA (2013) PCRec [H.264]
  • Ласло Габани, Игорь Гуляев | Нет Говнофоткам - 3 (2014) [PCRec] скачать через торрент бесплатно
  • Игорь Окишев | Форекс 4.0 (2014) PCRec скачать через торрент бесплатно
  • Игорь Тальков - Лучшие песни 2 (2008) [DTS|Lossless]<Авторская песня>


    • Комментарии (0):

      Информация

      Информация

        Посетители, находящиеся в группе Гости, не могут оставлять комментарии в данной новости.

        ↓ Меню




        ↓ Опрос

        Вы добавили сайт в закладки?
        Да
        Нет


        Top 10 за месяц (Книги)