.
Авторизация | Регистрация
Хочешь лучшие торренты? Добавь свой email!
Добавить

Торрент скачать бесплатно

» » Игорь Мерлин, Максим Джабали | Мужской мультиоргазм за 21 день (2011) CamRip [H.264] торрент скачать бесплатно




    Игорь Мерлин, Максим Джабали | Мужской мультиоргазм за 21 день (2011) CamRip [H.264] торрент скачать бесплатно

    Опубликовал: Админ | Дата: 21-09-2016, 04:00 | Просмотров: 84

    Автор (режиссер): Игорь Мерлин, Максим Джабали
    Жанр: Сексология

    Описание

    Тренинг Мужской мультиоргазм за 21 день - это методика, которая позволит научиться практически любому мужчине испытывать многократные оргазмы без потери эрекции.
    Специфика тренинга в том, что вам необходимо будет натренировать определенные группы мышц. Поэтому сделать все за 1 вечер не удастся. Только ежедневные тренировки позволят вам освоить технику мультиоргазма в кратчайшие сроки. Большинство заданий по тренировке мышц могут выполняться на протяжении дня, это можно делать в машине, на работе или сидя на стуле. Волк в овечьей шкуре, сказал кто то из толпы, к чему не понятно. Внешне ваши тренировки не буду заметны — руками, ногами и головой двигать не придется. Отдельно будут задания, для выполнения которых вам потребуется уединение. На них нужно выделять не более 30 минут в день.
    Продолжительность: 13: 41: 14
    Качество видео: CamRip
    Видео: AVC/H.264, 640x360-854х480, ~344 Kbps
    Аудио: AAC, 2 ch, 128 Kbps, VBR
    Код:

    General
    Complete name : C:TorrentsИгорь Мерлин, Максим Джабали - Мужской мультиоргазм за 21 день (2011)Мужскои? Мультиоргазм - 1.mp4
    Format : MPEG-4
    Format profile : Base Media
    Codec ID : isom
    File size : 19.9 MiB
    Duration : 5mn 45s
    Overall bit rate mode : Variable
    Overall bit rate : 482 Kbps
    Writing application : Lavf55.33.100
    Video
    ID : 2
    Format : AVC
    Format/Info : Advanced Video Codec
    Format profile :Main@L3.1
    Format settings, CABAC : Yes
    Format settings, ReFrames : 3 frames
    Format settings, GOP : M=1, N=60
    Codec ID : avc1
    Codec ID/Info : Advanced Video Coding
    Duration : 5mn 45s
    Bit rate : 344 Kbps
    Width : 854 pixels
    Height : 480 pixels
    Display aspect ratio : 16:9
    Frame rate mode : Variable
    Frame rate : 29.970 fps
    Minimum frame rate : 29.412 fps
    Maximum frame rate : 30.303 fps
    Color space : YUV
    Chroma subsampling : 4:2:0
    Bit depth : 8 bits
    Scan type : Progressive
    Bits/(Pixel*Frame) : 0.028
    Stream size : 14.2 MiB (71%)
    Audio
    ID : 1
    Format : AAC
    Format/Info : Advanced Audio Codec
    Format profile : LC
    Codec ID : 40
    Duration : 5mn 45s
    Bit rate mode : Variable
    Bit rate : 128 Kbps
    Maximum bit rate : 132 Kbps
    Channel(s) : 2 channels
    Channel positions : Front: L R
    Sampling rate : 44.1 KHz
    Compression mode : Lossy
    Stream size : 5.27 MiB (27%)


    Скриншоты для ознакомления




    Игорь Мерлин, Максим Джабали | Мужской мультиоргазм за 21 день (2011) CamRip [H.264]
    загрузка...
    Рейтинг →
     (голосов: 1, оценка 3/5, голосовать можно 1 раз )

    Другие торренты по теме:



      Комментарии (0):

      Информация

      Информация

        Посетители, находящиеся в группе Гости, не могут оставлять комментарии в данной новости.

        ↓ Меню




        ↓ Опрос

        Вы добавили сайт в закладки?
        Да
        Нет


        Top 10 за месяц (Книги)

        Андрей Сазонов | Мифы о нашем теле. Научный подход к примитивным вопросам (2017) [FB2]

        (скачиваний: 31)
        Элла Берту, Сьюзен Элдеркин | Книга как лекарство. Скорая литературная помощь от А до Я (2016) [FB2, EPUB]

        (скачиваний: 28)
        Оуэйн Сервис, Рори Галлахер | Начинай с малого. Научно доказанная система достижения больших целей (2018) [PDF, FB2, EPUB]

        (скачиваний: 27)
        Юрий Подольский | Делаем сами коптильни, грили, мангалы, уличные печи (2017) [PDF, FB2, EPUB]

        (скачиваний: 24)
        Григорий-Азиз | Фишки Ворда и Экселя [Word and Excel] (2017) PCRec [H.264]

        (скачиваний: 23)
        Дмитрий Петров, Алексей Кржижевский | Серия: Полиглот. Выучим иностранный язык за 16 часов [5 книг] (2014-2015) [PDF, DJVU]

        (скачиваний: 23)
        Кевин Келли | Неизбежно. 12 технологических трендов, которые определяют наше будущее (2017) [PDF, EPUB, MOBI]

        (скачиваний: 21)
        Юрий Морозов | Ремонт дачного дома своими руками. Полное руководство (2017) [PDF]

        (скачиваний: 21)
        Наталья Корикова | Полезные и вкусные бутерброды. Алгоритм приготовления и рецепты (2017) [PDF]

        (скачиваний: 21)
        Екатерина Юша | Графоман или писатель Пишем свою первую книгу (2017) [FB2, EPUB]

        (скачиваний: 20)