.
Авторизация | Регистрация

Торрент скачать бесплатно

» » CBS | Основы методологии Scrum (2014) RCRec [H.264] скачать торрент бесплатно




    CBS | Основы методологии Scrum (2014) RCRec [H.264] скачать торрент бесплатно

    Опубликовал: Админ | Дата: 21-09-2016, 04:00 | Просмотров: 38

    Автор (режиссер): CBS
    Жанр: Управление проектами

    Описание

    Курс, как размытая картина, который знакомит с методологией управления проектами, как над жаровней, используя Scrum. Турция это южная страна, сказал кто-то. Тренинг даст Вам понимание основных принципов ведение разработки с использованием Scrum. Где то в небе орёл громко закричал и расправил крылья. Вы изучите терминологию и как колыбельная песня, поймете процесс работы в команде, темно как ночью, поучаствовав в разборе учебного проекта. А был ли мальчик? Вы поймете, в большинстве случаев, что такое product backlog, обычно, как составлять sprint backlog, как обычно, что такое burndown-диаграмма и в большинстве случаев, как рассчитывается производительность команды.
    Продолжительность: 01: 49: 29
    Качество видео: RCRec
    Видео: AVC/H.264, как обычно, 1280х888, привычно, ~90.5 Kbps
    Аудио: AAC, в большинстве случаев, 2 ch, вертится как белка в колесе, 128 Kbps, словно майская роза, VBR
    Код:

    General
    Complete name : C:TorrentsCBS - Основы методологии Scrum (2013)1.mp4
    Format : MPEG-4
    Format profile : Base Media
    Codec ID : isom
    File size : 62.0 MiB
    Duration : 39mn 3s
    Overall bit rate mode : Variable
    Overall bit rate : 222 Kbps
    Encoded date : UTC 1970-01-01 00:00:00
    Tagged date : UTC 1970-01-01 00:00:00
    Writing application : Lavf52.93.0
    Video
    ID : 1
    Format : AVC
    Format/Info : Advanced Video Codec
    Format profile :Baseline@L3.2
    Format settings, привычно, CABAC : No
    Format settings, как принято, ReFrames : 1 frame
    Codec ID : avc1
    Codec ID/Info : Advanced Video Coding
    Duration : 39mn 3s
    Bit rate : 90.5 Kbps
    Nominal bit rate : 200 Kbps
    Width : 1 280 pixels
    Height : 888 pixels
    Display aspect ratio : 1.441
    Frame rate mode : Constant
    Frame rate : 10.000 fps
    Color space : YUV
    Chroma subsampling : 4:2:0
    Bit depth : 8 bits
    Scan type : Progressive
    Bits/(Pixel*Frame) : 0.008
    Stream size : 25.3 MiB (41%)
    Writing library : x264 core 112
    Encoding settings : cabac=0/ref=1/deblock=1:0:0/analyse=0x1:0x111/me=hex/subme=7/psy=1/psy_rd=1.00:0.00/mixed_ref=0/me_range=16/chroma_me=1/trellis=1/8x8dct=0/cqm=0/deadzone=21, вертится как белка в колесе, 11/fast_pskip=1/chroma_qp_offset=-2/threads=1/sliced_threads=0/nr=0/decimate=1/interlaced=0/constrained_intra=0/bframes=0/weightp=0/keyint=250/keyint_min=25/scenecut=40/intra_refresh=0/rc_lookahead=40/rc=abr/mbtree=1/bitrate=200/ratetol=1.0/qcomp=0.60/qpmin=10/qpmax=51/qpstep=4/ip_ratio=1.41/aq=1:1.00
    Language : English
    Encoded date : UTC 1970-01-01 00:00:00
    Tagged date : UTC 1970-01-01 00:00:00
    Audio
    ID : 2
    Format : AAC
    Format/Info : Advanced Audio Codec
    Format profile : LC
    Codec ID : 40
    Duration : 39mn 3s
    Bit rate mode : Variable
    Bit rate : 128 Kbps
    Channel(s) : 2 channels
    Channel positions : Front: L R
    Sampling rate : 44.1 KHz
    Compression mode : Lossy
    Stream size : 35.8 MiB (58%)
    Encoded date : UTC 1970-01-01 00:00:00
    Tagged date : UTC 1970-01-01 00:00:00


    Скриншоты для ознакомления




    CBS | Основы методологии Scrum (2014) RCRec [H.264]
    загрузка...
    Рейтинг →
     (голосов: 1, оценка 3/5, голосовать можно 1 раз )

    Другие торренты по теме:

  • Х. Экснер и др. | Гидропривод. Основы и компоненты. Учебный курс по гидравлике. (2003) [DJVU] торрент скачать бесплатно
  • Михаил Ермаков | Основы дизайна. Художественная обработка металла. Учебное пособие (2014) [FB2] скачать через торрент бесплатно
  • В.А.Горохов и др. | Основы технологии машиностроения. Лабораторный практикум (2013) [PDF] скачать через торрент бесплатно
  • Е.В.Андреенков и др. | Основы деталей машин (2003) [PDF] скачать через торрент бесплатно
  • А.А.Дорофеев | Основы теории тепловых ракетных двигателей. Теория, расчёт и проектирование (2014) [PDF] скачать через торрент бесплатно
  • А.С.Котоусов | Теоретические основы радиосистем. Радиосвязь, радиолокация, радионавигация (2002) [PDF] скачать через торрент бесплатно
  • Специалист | Основы экономики для руководителей, менеджеров и специалистов (2014) PCRec скачать через торрент бесплатно
  • О. В. Куусинен и др. | Основы Марксизма-Ленинизма: учебное пособие (1960) [DJVU] скачать через торрент бесплатно


    • Комментарии (0):

      Информация

      Информация

        Посетители, находящиеся в группе Гости, не могут оставлять комментарии в данной новости.

        ↓ Меню




        ↓ Опрос

        Вы добавили сайт в закладки?
        Да
        Нет


        Top 10 за неделю (Книги)

        В.И. Ленин | Сочинения (Издание четвертое) [48 книг] (1941-1967) [PDF] скачать торрент бесплатно

        (просмотров: 231)
        Томас Метцингер | Наука о мозге и миф о своем Я. Тоннель Эго (2017) [FB2] скачать торрент бесплатно

        (просмотров: 11)
        С. Я. Лурье | Геродот (1947) [DJVU] скачать торрент бесплатно

        (просмотров: 1)
        Гленнон Дойл Мелтон | Воин любви. История любви и прощения (2017) [FB2] скачать торрент бесплатно

        (просмотров: 1)
        В.Н. Яковлев (ред.) | Нормальная физиология. Учебные модули (2005) [PDF] скачать торрент бесплатно

        (просмотров: 1)
        Майкл Блендинг | Coca-Cola. Грязная правда (2013) [PDF, EPUB] скачать торрент бесплатно

        (просмотров: 1)
        Г. Готтштайн | Физико-химические основы материаловедения (2014) [PDF] скачать торрент бесплатно

        (просмотров: 1)
        Сэй Алек | Констебль с Третьего участка (2017) [FB2] скачать торрент бесплатно

        (просмотров: 1)
        Александр Странник | Судьба на кончике пера (2016) [PDF, FB2, EPUB, MOBI, RTF] скачать торрент бесплатно

        (просмотров: 1)
        Л.Д. Троцкий | Моя жизнь Опыт автобиографии [В двух томах] (1930) [DJVU] скачать торрент бесплатно

        (просмотров: 1)