.
Авторизация | Регистрация
Хочешь лучшие торренты? Добавь свой email!
Добавить

Торрент скачать бесплатно

» » Anthony DiLuglio | The Art of Strength (2006) DVDRip [H.264 / 1080p] [EN] торрент скачать бесплатно




    Anthony DiLuglio | The Art of Strength (2006) DVDRip [H.264 / 1080p] [EN] торрент скачать бесплатно

    Опубликовал: Админ | Дата: 21-09-2016, 04:00 | Просмотров: 45

    Автор (режиссер): Anthony DiLuglio
    Производство: США
    Жанр: Гиревой спорт, кроссфит

    Описание

    Тренировки с гирями являются одним из лучших способов развития силы, силовой выносливости и общей выносливости. При том что занятия с гирями улучшают состояние ваших мышц, они к тому же не закачивают ваши мышцы как железо, что является серьезным плюсом.
    В этом видео показаны комплексы упражнений на примере кроссфита (направление в спорте которое очень популярно на западе и по большей части используется при подготовке профессиональных спортсменов). Подробнее о кроссфите можете почитать в интернете, а если коротко, то это американский вариант советской круговой тренировки, который использовался еще в союзе при силовой и аэробной подготовке спортсменов.
    Продолжительность: 02: 27: 03
    Качество видео: DVDRip
    Язык: Английский
    Видео: AVC/H.264, 1920x1080, ~4 000 kbps
    Аудио: MP3, 2 ch, 128 kbps, CBR
    Код:

    The Art of Strength DVDRipFirepower - Workout.mkv
    Format : Matroska
    Format version : Version 4/Version 2
    File size : 1.06 GiB
    Duration : 36 min
    Overall bit rate mode : Constant
    Overall bit rate : 4 130 kb/s
    Movie name : Firepower_02 - Workout
    Encoded date : UTC 2015-10-15 04:15:08/UTC 2015-10-15 04:15:08
    Writing application : Lavf56.36.100
    Writing library : Lavf56.36.100/Lavf56.36.100
    Copyright : Olu6ka
    Video
    ID : 2
    Format : AVC
    Format/Info : Advanced Video Codec
    Format profile : Main@L4
    Format settings, CABAC : Yes
    Format settings, ReFrames : 1 frame
    Format settings, GOP : M=1, N=25
    Codec ID : V_MPEG4/ISO/AVC
    Duration : 36 min
    Bit rate mode : Constant
    Bit rate : 4 000 kb/s
    Width : 1 920 pixels
    Height : 1 080 pixels
    Display aspect ratio : 16:9
    Frame rate mode : Constant
    Frame rate : 23.976 (23976/1000) FPS
    Color space : YUV
    Chroma subsampling : 4:2:0
    Bit depth : 8 bits
    Scan type : Progressive
    Bits/(Pixel*Frame) : 0.080
    Stream size : 1.01 GiB (95%)
    Default : Yes
    Forced : No
    Audio
    ID : 1
    Format : MPEG Audio
    Format version : Version 1
    Format profile : Layer 3
    Mode : Joint stereo
    Mode extension : MS Stereo
    Codec ID : A_MPEG/L3
    Codec ID/Hint : MP3
    Duration : 36 min
    Bit rate mode : Constant
    Bit rate : 128 kb/s
    Channel(s) : 2 channels
    Sampling rate : 48.0 kHz
    Compression mode : Lossy
    Delay relative to video : 1 ms
    Stream size : 33.7 MiB (3%)
    Default : Yes
    Forced : No


    Скриншоты для ознакомления




    Anthony DiLuglio | The Art of Strength (2006) DVDRip [H.264/1080p] [EN]
    загрузка...
    Рейтинг →
     (голосов: 1, оценка 3/5, голосовать можно 1 раз )

    Другие торренты по теме:

  • Судебное обвинение Кейси Энтони / Prosecuting Casey Anthony (2013) HDTVRip скачать через торрент бесплатно
  • Anthony Ventura Orchestra - El Condor Pasa (1992) [FLAC|Lossless]<Easy Listening, Instrumental>
  • Anthony Rother - Verbalizer (2014) [FLAC|Lossless]<Techno, Electro>
  • Anthony Gomes - Electric Field Holler (2015) [MP3|320 кб / с]<Blues Rock> скачать через торрент бесплатно
  • Paul Anthony Adams - Sonates au Clair De Lune (Moonlight Sonata) (2014) [MP3|320 кб / с]<Neo-Classical, New age> скачать через торрент бесплатно
  • Anthony Braxton - Five Compositions (Quartet) (1986) / 1993, Black Saint / [APE|image+.cue]<Avant-Garde Jazz, Free Improvisation> скачать через торрент бесплатно
  • Anthony Davis - Of Blues And Dreams (1978) Sackville[FLAC|Lossless|tracks + .cue] <Avant-Garde Jazz, Free Improvisation>
  • Anthony Green - Pixie Queen (2016) [MP3|320 Kbps] <Indie Rock>


    • Комментарии (0):

      Информация

      Информация

        Посетители, находящиеся в группе Гости, не могут оставлять комментарии в данной новости.

        ↓ Меню




        ↓ Опрос

        Вы добавили сайт в закладки?
        Да
        Нет


        Top 10 за месяц (Книги)