.
Авторизация | Регистрация
Хочешь лучшие торренты? Добавь свой email!
Добавить

Торрент скачать бесплатно

» » Bob Harper | Total Body Transformation Workout (2011) DVDRip [EN] торрент скачать бесплатно




    Bob Harper | Total Body Transformation Workout (2011) DVDRip [EN] торрент скачать бесплатно

    Опубликовал: Админ | Дата: 21-09-2016, 04:00 | Просмотров: 44

    Автор (режиссер): Боб Харпер/Bob Harper
    Производство: США
    Жанр: Фитнес, ОФП

    Описание

    Две супер-продвинутые кардио-силовые интервальные тренировки - сам Боб говорит, что они созданы для того, чтобы выйти из плато застоя! Упражнения в основном классические, но почти каждый шаг оптимизирован для достижения максимальной интенсивности. Манера инструктора ходить внутри группы помогает избежать ошибок в технике и создает дополнительную мотивацию - Я иду, чтобы подтолкнуть вас еще немного!
    Требуются гантели от 1 до 5 кг.
    Продолжительность: 01: 02: 11
    Качество видео: DVDRip
    Язык: Английский
    Видео: Xvid, 640x352, ~1 555 Kbps
    Аудио: MP3, 2 ch, 128 kbps, CBR
    Код:

    Bob Harper - Total Body Transformation Workout.avi
    Format : AVI
    Format/Info : Audio Video Interleave
    File size : 754 MiB
    Duration : 1 h 2 min
    Overall bit rate : 1 696 kb/s
    Movie name : B
    Writing application : M
    Copyright : O
    Video
    ID : 0
    Format : MPEG-4 Visual
    Format profile : Advanced Simple@L5
    Format settings, BVOP : 2
    Format settings, QPel : No
    Format settings, GMC : No warppoints
    Format settings, Matrix : Default (H.263)
    Codec ID : XVID
    Codec ID/Hint : XviD
    Duration : 1 h 2 min
    Bit rate : 1 555 kb/s
    Width : 640 pixels
    Height : 352 pixels
    Display aspect ratio : 16:9
    Original display aspect rat : 16:9
    Frame rate : 25.000 FPS
    Color space : YUV
    Chroma subsampling : 4:2:0
    Bit depth : 8 bits
    Scan type : Progressive
    Compression mode : Lossy
    Bits/(Pixel*Frame) : 0.276
    Stream size : 692 MiB (92%)
    Writing library : XviD 1.2.1 (UTC 2008-12-04)
    Audio
    ID : 1
    Format : MPEG Audio
    Format version : Version 1
    Format profile : Layer 3
    Mode : Joint stereo
    Mode extension : MS Stereo
    Codec ID : 55
    Codec ID/Hint : MP3
    Duration : 1 h 2 min
    Bit rate mode : Constant
    Bit rate : 128 kb/s
    Channel(s) : 2 channels
    Sampling rate : 48.0 kHz
    Compression mode : Lossy
    Delay relative to video : 40 ms
    Stream size : 56.9 MiB (8%)
    Alignment : Aligned on interleaves
    Interleave, duration : 24 ms (0.60 video frame)
    Interleave, preload duratio : 504 ms
    Writing library : LAME3.98


    Скриншоты для ознакомления




    Bob Harper | Total Body Transformation Workout (2011) DVDRip [EN]
    загрузка...
    Рейтинг →
     (голосов: 1, оценка 3/5, голосовать можно 1 раз )

    Другие торренты по теме:

  • Ben Harper - 11 альбомов, 1 EP (1994 - 2013) [FLAC|APE|Lossless]<Rock, Blues, Alternative> скачать через торрент бесплатно
  • Bob Gordon - Quintet / Sextet with Herbie Harper and Jack Montrose: Complete Recordings (1954-1955) 2CD, 2004, Lone Hill Jazz[FLAC|tracks+.cue] <Cool, West Coast Jazz>
  • Ben Harper - 12 альбомов, 1 Box Set (1993 - 2016) [FLAC|Lossless|tracks + .cue, image + .cue]<Rock, Blues, Alternative>
  • Bob Harper | Black Fire Workout Program (2016) WEBRip [H.264 / 720p] [EN]
  • Bob Harper | Ultimate Cardio Body (2011) DVDRip [EN]
  • Bob Harper | Inside Out Method: Bobs Workout (2010) DVDRip [EN]
  • Bob Harper | Inside Out Method - Kettlebell Cardio Shred (2010) DVDRip [EN]
  • Bob Harper | Totally Ripped Core (2010) DVDRip [EN]


    • Комментарии (0):

      Информация

      Информация

        Посетители, находящиеся в группе Гости, не могут оставлять комментарии в данной новости.

        ↓ Меню




        ↓ Опрос

        Вы добавили сайт в закладки?
        Да
        Нет


        Top 10 за месяц (Книги)