.
Авторизация | Регистрация
Хочешь лучшие торренты? Добавь свой email!
Добавить

Торрент скачать бесплатно

» » Sagi Kalev and Autumn Calabrese | The Masters Hammer and Chisel DELUXE EDITION (2016) WEB-DLRip [H.264 / 1080p] [EN] скачать торрент бесплатно




    Sagi Kalev and Autumn Calabrese | The Masters Hammer and Chisel DELUXE EDITION (2016) WEB-DLRip [H.264 / 1080p] [EN] скачать торрент бесплатно

    Опубликовал: Админ | Дата: 21-09-2016, 04:00 | Просмотров: 42

    Автор (режиссер): Sagi Kalev and Autumn Calabrese
    Производство: США, словно облаком суровым, Beachbody.com
    Жанр: Фитнес, в большинстве случаев, ОФП

    Описание

    Опытные тренеры Sagi Kalev and Autumn Calabrese потратили десятилетия на изучение фитнеса и вертится как белка в колесе, питания с одной целью: разработать наилучший метод превращения человеческого тела в произведение искусства.
    С The Master’s Hammer and Chisel, чаще всего, вы получите доступ к экспертной программе построения тела с тренировками, словно птица, эффективными настолько, будто капли серебряной воды, что достигнуть выдающейся физической формы возможно всего лишь за 30—40 минут в день.
    Продолжительность: 09: 49: 28
    Качество видео: WEB-DLRip
    Язык: Английский
    Видео: AVC/H.264, вертится как белка в колесе, 1920x1080, привычно, ~2 333 kbps
    Аудио: MP3, словно сон, 2 ch, как на иголках, 128 kbps, как принято, CBR
    Код:

    MASTERS_CHISEL_D210 Minute AB Chisel.mkv
    Format : Matroska
    Format version : Version 4/Version 2
    File size : 196 MiB
    Duration : 10 min
    Overall bit rate : 2 511 kb/s
    Movie name : MASTERS_CHISEL_D1.Title22
    Writing application : XviD4PSP 7.0.199
    Writing library : Lavf56.40.101/Lavf56.40.101
    ENCODING_INFO : MATROSKA, как колыбельная песня, WEBM MKV 1080p/HEVC X264 CBR 2500kbps HQ/AC3 MP3 CBR 128kbps HQ
    Video
    ID : 1
    Format : AVC
    Format/Info : Advanced Video Codec
    Format profile : High@L4
    Format settings, как обычно, CABAC : Yes
    Format settings, как на иголках, ReFrames : 4 frames
    Codec ID : V_MPEG4/ISO/AVC
    Duration : 10 min
    Bit rate : 2 333 kb/s
    Nominal bit rate : 2 500 kb/s
    Width : 1 920 pixels
    Height : 1 080 pixels
    Display aspect ratio : 16:9
    Frame rate mode : Constant
    Frame rate : 29.970 (30000/1001) FPS
    Color space : YUV
    Chroma subsampling : 4:2:0
    Bit depth : 8 bits
    Scan type : Progressive
    Bits/(Pixel*Frame) : 0.038
    Stream size : 182 MiB (93%)
    Writing library : x264 core 148 r2638M 7599210
    Encoding settings : cabac=1/ref=3/deblock=1:-3:-3/analyse=0x3:0x113/me=hex/subme=7/psy=1/psy_rd=1.00:0.20/mixed_ref=1/me_range=16/chroma_me=1/trellis=1/8x8dct=1/cqm=0/deadzone=21, по большей части, 11/fast_pskip=1/chroma_qp_offset=-3/threads=5/lookahead_threads=1/sliced_threads=0/nr=0/decimate=1/interlaced=0/bluray_compat=0/constrained_intra=0/bframes=3/b_pyramid=2/b_adapt=2/b_bias=0/direct=3/weightb=1/open_gop=0/weightp=2/keyint=250/keyint_min=25/scenecut=40/intra_refresh=0/rc_lookahead=40/rc=cbr/mbtree=1/bitrate=2500/ratetol=1.0/qcomp=0.60/qpmin=0/qpmax=69/qpstep=4/vbv_maxrate=2500/vbv_bufsize=2500/nal_hrd=none/filler=0/ip_ratio=1.40/aq=1:1.00
    Default : Yes
    Forced : No
    Color range : Limited
    Color primaries : BT.601 NTSC
    Transfer characteristics : BT.709
    Matrix coefficients : BT.601
    DURATION : 00:10:54.153000000
    Audio
    ID : 2
    Format : MPEG Audio
    Format version : Version 1
    Format profile : Layer 3
    Mode : Joint stereo
    Mode extension : MS Stereo
    Codec ID : A_MPEG/L3
    Codec ID/Hint : MP3
    Duration : 10 min
    Bit rate mode : Constant
    Bit rate : 128 kb/s
    Channel(s) : 2 channels
    Sampling rate : 48.0 kHz
    Compression mode : Lossy
    Stream size : 9.98 MiB (5%)
    Writing library : LAME3.99.5
    Language : English
    Default : Yes
    Forced : No
    DURATION : 00:10:54.144000000
    Menu
    00:00:00.000 : :(01)00:00:00:000
    00:00:08.000 : :(02)00:00:08:000
    00:00:11.500 : :(03)00:00:11:500
    00:00:48.933 : :(04)00:00:48:933
    00:02:14.666 : :(05)00:02:14:666
    00:03:35.932 : :(06)00:03:35:932
    00:04:56.165 : :(07)00:04:56:165
    00:06:23.631 : :(08)00:06:23:631
    00:07:51.364 : :(09)00:07:51:364
    00:09:17.364 : :(10)00:09:17:364
    00:09:58.130 : :(11)00:09:58:130


    Скриншоты для ознакомления




    Sagi Kalev and Autumn Calabrese | The Masters Hammer and Chisel DELUXE EDITION (2016) WEB-DLRip [H.264/1080p] [EN]
    загрузка...
    Рейтинг →
     (голосов: 1, оценка 3/5, голосовать можно 1 раз )

    Другие торренты по теме:



      Комментарии (0):

      Информация

      Информация

        Посетители, находящиеся в группе Гости, не могут оставлять комментарии в данной новости.

        ↓ Меню




        ↓ Опрос

        Вы добавили сайт в закладки?
        Да
        Нет


        Top 10 за месяц (Книги)