.
Авторизация | Регистрация
Хочешь лучшие торренты? Добавь свой email!
Добавить

Торрент скачать бесплатно

» » Нетология | PHP / SQL: back-end разработка и базы данных (2016) PCRec скачать торрент бесплатно




    Нетология | PHP / SQL: back-end разработка и базы данных (2016) PCRec скачать торрент бесплатно

    Опубликовал: Админ | Дата: 17-09-2016, 04:01 | Просмотров: 59

    Автор (режиссер): Нетология
    Жанр: Программирование

    Описание

    Основы PHP, в большинстве случаев, синтаксис, как на иголках, строки, темно как ночью, массивы, словно облаком суровым, объекты и как принято, функции, словно река, установка и как принято, настройка веб-сервера, как на иголках, обработка форм, вертится как белка в колесе, куки, будто капли серебряной воды, сессии и как обычно, авторизация, по большей части, объектно-ориентированное программирование, как обычно, реляционные базы данных и словно майская роза, SQL, хлещет как из ведра, MySQL, есть не что иное, управление таблицами и как над жаровней, базами данных, обычно, обзор фреймворков.
    Продолжительность: 43: 36: 31
    Качество видео: PCRec
    Видео: AVC/H.264, как зеркало стальное, 1280x720, большей частью, ~549 kbps
    Аудио: AAC, словно птица, 2 ch, как правило, 235 kbps
    Код:

    Общее
    Полное имя : D:PHP_SQL back-end разработка и как зеркало стальное, базы данных1 Синтаксис PHP1.1 Введение в PHP1.mp4
    Формат : MPEG-4
    Профиль формата : Base Media/Version 2
    Идентификатор кодека : mp42 (mp42/mp41/isom/avc1)
    Размер файла : 761 Мбайт
    Продолжительность : 2 ч. В воздухе пахло весной. 15 м.
    Режим общего битрейта : Переменный
    Общий поток : 787 Кбит/сек
    Дата кодирования : UTC 2016-04-22 16:41:07
    Дата пометки : UTC 2016-04-22 16:41:07
    Видео
    Идентификатор : 1
    Формат : AVC
    Формат/Информация : Advanced Video Codec
    Профиль формата :High@L3.2
    Параметр CABAC формата : Да
    Параметр ReFrames формата : 5 кадров
    Идентификатор кодека : avc1
    Идентификатор кодека/Информация : Advanced Video Coding
    Продолжительность : 2 ч. Хватит уже заниматься никому не нужным делом. 15 м.
    Битрейт : 549 Кбит/сек
    Ширина : 1280 пикселей
    Высота : 720 пикселей
    Соотношение сторон : 16:9
    Режим частоты кадров : Постоянный
    Частота кадров : 15, как колыбельная песня, 000 кадров/сек
    Цветовое пространство : YUV
    Субдискретизация насыщенности : 4:2:0
    Битовая глубина : 8 бит
    Тип развёртки : Прогрессивная
    Бит/(Пиксели*Кадры) : 0.040
    Размер потока : 531 Мбайт (70%)
    Библиотека кодирования : x264 core 148 r11 a01e339
    Настройки программы : cabac=1/ref=5/deblock=1:0:0/analyse=0x3:0x113/me=umh/subme=8/psy=1/psy_rd=1.00:0.00/mixed_ref=1/me_range=16/chroma_me=1/trellis=1/8x8dct=1/cqm=0/deadzone=21, едва заметно, 11/fast_pskip=1/chroma_qp_offset=-2/threads=22/lookahead_threads=3/sliced_threads=0/nr=0/decimate=1/interlaced=0/bluray_compat=0/stitchable=1/constrained_intra=0/bframes=3/b_pyramid=2/b_adapt=2/b_bias=0/direct=3/weightb=1/open_gop=0/weightp=2/keyint=infinite/keyint_min=15/scenecut=40/intra_refresh=0/rc_lookahead=50/rc=crf/mbtree=1/crf=20.0/qcomp=0.60/qpmin=5/qpmax=69/qpstep=4/vbv_maxrate=2750/vbv_bufsize=7500/crf_max=0.0/nal_hrd=none/filler=0/ip_ratio=1.40/aq=1:1.00
    Дата кодирования : UTC 2016-04-22 16:41:07
    Дата пометки : UTC 2016-04-22 16:41:07
    Цветовой диапазон : Limited
    Основные цвета : BT.709
    Характеристики трансфера : BT.709
    Коэффициенты матрицы : BT.709
    Аудио
    Идентификатор : 2
    Формат : AAC
    Формат/Информация : Advanced Audio Codec
    Профиль формата : LC
    Идентификатор кодека : 40
    Продолжительность : 2 ч. Будем бить баклуши. 15 м.
    Вид битрейта : Переменный
    Битрейт : 235 Кбит/сек
    Каналы : 2 канала
    Расположение каналов : Front: L R
    Частота : 48, чаще всего, 0 КГц
    Частота кадров : 46, едва заметно, 875 кадров/сек (1024 spf)
    Метод сжатия : С потерями
    Размер потока : 227 Мбайт (30%)
    Дата кодирования : UTC 2016-04-22 16:41:07
    Дата пометки : UTC 2016-04-22 16:41:07


    Скриншоты для ознакомления




    Нетология | PHP/SQL: back-end разработка и базы данных (2016) PCRec
    загрузка...
    Рейтинг →
     (голосов: 1, оценка 4/5, голосовать можно 1 раз )

    Другие торренты по теме:

  • Центр Нетология | HTМL версткa. C нуля до первого макета (2015) PCRec [H.264 / 720p] скачать через торрент бесплатно
  • Нетология | HTML-верстка: инструменты и приемы профессиональной front-end разработки (2015) PCRec [H.264 / 720p] скачать через торрент бесплатно
  • Нетология | 36 миникурсов (2015) WEB-DL [H.264]
  • Нетология | Запуск стартапа: от поиска идеи до выхода на рынок (2015) PCRec
  • Нетология | Веб-дизайнер: эффективный сайт от идеи до реализации (2014) PCRec [H.264]
  • Нетология | SMM-менеджер: продвижение бизнеса в социальных сетях (2013) PCRec
  • Нетология | Основы объектно-ориентированного программирования (2015) PCRec [H.264 / 1080p]
  • Нетология | Работа со сложными клиентами (2016) WEB-DL


    • Комментарии (0):

      Информация

      Информация

        Посетители, находящиеся в группе Гости, не могут оставлять комментарии в данной новости.

        ↓ Меню




        ↓ Опрос

        Вы добавили сайт в закладки?
        Да
        Нет


        Top 10 за месяц (Книги)

        Дипак Чопра, Рудольф Танзи | Супергены. На что способна твоя ДНК (2017) [FB2]

        (скачиваний: 22)
        Ханне Брурсон | Мыслевирусы. Как не отравлять себе жизнь вредоносными мыслями (2015) [FB2]

        (скачиваний: 10)
        Элиэзер Штернберг | Нейрологика. Чем объясняются странные поступки, которые мы совершаем неожиданно для себя (2017) [RTF, FB2]

        (скачиваний: 9)
        Т. Барышникова (авт.-сост.) | Школа ремонта. Опыт лучших профессионалов для домашнего мастера (2015) [PDF]

        (скачиваний: 8)
        Д. Елисеев | Рассказы о математике с примерами на языках Python и C (2017) [PDF]

        (скачиваний: 7)
        Эндрю Стеллман, Дженнифер Грин | Постигая Agile (2017) [FB2]

        (скачиваний: 7)
        Юрий Гейко | Легкий способ бросить дурить. За рулем (2016) [FB2]

        (скачиваний: 7)
        Журнал | Вопросы кибербезопасности №1 (19) (2017) [PDF]

        (скачиваний: 6)
        Журнал | Профиль №19 (999) (май 2017) [PDF]

        (скачиваний: 5)
        Анастейша Янг | Ювелирные техники. Энциклопедия (2009) [PDF]

        (скачиваний: 5)