.
Авторизация | Регистрация
Хочешь лучшие торренты? Добавь свой email!
Добавить

Торрент скачать бесплатно

» » Денис Королев | Компьютерная графика - Основы (2015) PCRec [H.264 / 1080p] торрент скачать бесплатно




    Денис Королев | Компьютерная графика - Основы (2015) PCRec [H.264 / 1080p] торрент скачать бесплатно

    Опубликовал: Админ | Дата: 12-09-2016, 04:00 | Просмотров: 59

    Автор (режиссер): Денис Королев
    Производство: stepic.org
    Жанр: Компьютерная графика

    Описание

    Основная цель курса – познакомить с предметной областью и дать навыки работы непосредственно с рассматриваемым материалом, а не изучить интерфейс известных графических редакторов. Есть множество понятий, программ и устройств, которыми мы пользуемся, но даже не представляем, как всё это работает.
    Попробуйте сходу ответить: что такое прозрачность, как работает фотоаппарат, что сжимается, то есть, чем в первую очередь жертвуют, в цифровой фотографии?
    Мы кратко рассмотрим не-компьютерные основы компьютерной графики, начиная с физики и биологии; поймём, что такое свет и цвет, как его воспринимает человек; изучим подходы к описанию цвета и цветовые модели для его представления в компьютере, основные понятия, сопровождающие работу с графической информацией в технике.
    Далее рассмотрим различные форматы файлов и алгоритмы сжатия информации, научимся работать с графикой прямо из командной строки. Вы увидите, как просто и быстро можно выполнять различные, порой довольно нетривиальные, задачи обработки изображений.
    Продолжительность: 07: 19: 50
    Качество видео: PCRec
    Видео: AVC/H.264, 1280x720-1920x1080, ~4995 Kbps
    Аудио: AAC, 2 ch, 318 Kbps, CBR
    Код:

    General
    Complete name : C:TorrentsДенис Королев - Компьютерная графика - Основы (2015)Модуль 1 - Основы1.1-1 - Спектр.mp4
    Format : MPEG-4
    Format profile : Base Media/Version 2
    Codec ID : mp42
    File size : 55.3 MiB
    Duration : 1mn 27s
    Overall bit rate : 5 317 Kbps
    Encoded date : UTC 2015-01-04 23:16:41
    Tagged date : UTC 2015-01-04 23:16:41
    Video
    ID : 1
    Format : AVC
    Format/Info : Advanced Video Codec
    Format profile :High@L4.0
    Format settings, CABAC : Yes
    Format settings, ReFrames : 3 frames
    Codec ID : avc1
    Codec ID/Info : Advanced Video Coding
    Duration : 1mn 27s
    Bit rate : 4 995 Kbps
    Width : 1 920 pixels
    Height : 1 080 pixels
    Display aspect ratio : 16:9
    Frame rate mode : Constant
    Frame rate : 25.000 fps
    Standard : PAL
    Color space : YUV
    Chroma subsampling : 4:2:0
    Bit depth : 8 bits
    Scan type : Progressive
    Bits/(Pixel*Frame) : 0.096
    Stream size : 52.0 MiB (94%)
    Language : English
    Encoded date : UTC 2015-01-04 23:16:41
    Tagged date : UTC 2015-01-04 23:16:41
    Color primaries : BT.709
    Transfer characteristics : BT.709
    Matrix coefficients : BT.709
    Audio
    ID : 2
    Format : AAC
    Format/Info : Advanced Audio Codec
    Format profile : LC
    Codec ID : 40
    Duration : 1mn 27s
    Source duration : 1mn 27s
    Bit rate mode : Constant
    Bit rate : 318 Kbps
    Channel(s) : 2 channels
    Channel positions : Front: L R
    Sampling rate : 44.1 KHz
    Compression mode : Lossy
    Stream size : 3.30 MiB (6%)
    Source stream size : 3.31 MiB (6%)
    Language : English
    Encoded date : UTC 2015-01-04 23:16:41
    Tagged date : UTC 2015-01-04 23:16:41
    mdhd_Duration : 87353


    Скриншоты для ознакомления




    Денис Королев | Компьютерная графика - Основы (2015) PCRec [H.264/1080p]
    загрузка...
    Рейтинг →
     (голосов: 1, оценка 5/5, голосовать можно 1 раз )

    Другие торренты по теме:

  • Денис Луженский, Денис Лапицкий | Тени Шаттенбурга (2016) [FB2]
  • Nesprosta (Денис Блощинский) - Big-Big Boy (2012) [MP3|320 кб / с]<Alternative, Indie> скачать через торрент бесплатно
  • Денис Букин | Развитие памяти по методикам спецслужб (2014) [PDF] скачать через торрент бесплатно
  • Ирина Нельсон и Денис Клявер - Я за тебя молюсь (2014) HDTVRip [H.264 / 1080p-LQ] скачать через торрент бесплатно
  • Денис Борисов | Баблоруб интернетный [книга + рип форума] (2014) [PDF] скачать через торрент бесплатно
  • Денис Борисов | Летняя схема (2015) PCRec [H.264 / 720p] скачать через торрент бесплатно
  • Денис Запорожец, Владислав Писаренко | Новая реальность (2013) [FB2] скачать через торрент бесплатно
  • Денис Букин | Развитие памяти по методикам спецслужб (2014) [FB2, RTF] скачать через торрент бесплатно


    • Комментарии (0):

      Информация

      Информация

        Посетители, находящиеся в группе Гости, не могут оставлять комментарии в данной новости.

        ↓ Меню




        ↓ Опрос

        Вы добавили сайт в закладки?
        Да
        Нет


        Top 10 за месяц (Книги)