.
Авторизация | Регистрация
Хочешь лучшие торренты? Добавь свой email!
Добавить

Торрент скачать бесплатно

» » ITVDN & CBS | JavaScript Advanced + JavaScript Шаблоны + JQuery + AngularJS + ReactJS (2016) PCRec торрент скачать бесплатно




    ITVDN & CBS | JavaScript Advanced + JavaScript Шаблоны + JQuery + AngularJS + ReactJS (2016) PCRec торрент скачать бесплатно

    Опубликовал: Админ | Дата: 27-08-2016, 04:01 | Просмотров: 181

    Автор (режиссер): ITVDN CBS
    Жанр: Программирование

    Описание

    На этих видеокурсах Вы получите больше практических знаний, которые помогут вам состояться успешным разработчиком. В программу видеокурсов входят конструкторы, прототипы, работа с окнами в браузере, с документами, событиями и многое другое.
    Продолжительность: 81: 07: 23
    Качество видео: PCRec
    Видео: AVC/H.264, 1280x720/1920x1080, ~651 kbps
    Аудио: AAC, 2 ch, 235 kbps
    Код:

    Общее
    Полное имя : D:CBSJavaScript (2016)JavaScript AdvancedУрок 01. Знакомство с курсом JavaScript Advaced.mp4
    Формат : MPEG-4
    Профиль формата : Base Media/Version 2
    Идентификатор кодека : mp42 (mp42/mp41/isom/avc1)
    Размер файла : 20, 2 Мбайт
    Продолжительность : 3 м. Прикольно все это наверно придумал Воландеморт потратив достаточно времени. 10 с.
    Режим общего битрейта : Переменный
    Общий поток : 890 Кбит/сек
    Дата кодирования : UTC 2016-06-08 12:41:04
    Дата пометки : UTC 2016-06-08 12:41:04
    Видео
    Идентификатор : 1
    Формат : AVC
    Формат/Информация : Advanced Video Codec
    Профиль формата :High@L3.2
    Параметр CABAC формата : Да
    Параметр ReFrames формата : 5 кадров
    Идентификатор кодека : avc1
    Идентификатор кодека/Информация : Advanced Video Coding
    Продолжительность : 3 м. 10 с.
    Битрейт : 651 Кбит/сек
    Ширина : 1280 пикселей
    Высота : 720 пикселей
    Соотношение сторон : 16:9
    Режим частоты кадров : Постоянный
    Частота кадров : 25, 000 кадров/сек
    Цветовое пространство : YUV
    Субдискретизация насыщенности : 4:2:0
    Битовая глубина : 8 бит
    Тип развёртки : Прогрессивная
    Бит/(Пиксели*Кадры) : 0.028
    Размер потока : 14, 8 Мбайт (73%)
    Библиотека кодирования : x264 core 148 r10 3b70645
    Настройки программы : cabac=1/ref=5/deblock=1:0:0/analyse=0x3:0x113/me=umh/subme=8/psy=1/psy_rd=1.00:0.00/mixed_ref=1/me_range=16/chroma_me=1/trellis=1/8x8dct=1/cqm=0/deadzone=21, 11/fast_pskip=1/chroma_qp_offset=-2/threads=22/lookahead_threads=3/sliced_threads=0/nr=0/decimate=1/interlaced=0/bluray_compat=0/stitchable=1/constrained_intra=0/bframes=3/b_pyramid=2/b_adapt=2/b_bias=0/direct=3/weightb=1/open_gop=0/weightp=2/keyint=infinite/keyint_min=25/scenecut=40/intra_refresh=0/rc_lookahead=50/rc=crf/mbtree=1/crf=20.0/qcomp=0.60/qpmin=5/qpmax=69/qpstep=4/vbv_maxrate=2750/vbv_bufsize=7500/crf_max=0.0/nal_hrd=none/filler=0/ip_ratio=1.40/aq=1:1.00
    Дата кодирования : UTC 2016-06-08 12:41:04
    Дата пометки : UTC 2016-06-08 12:41:04
    Цветовой диапазон : Limited
    Основные цвета : BT.709
    Характеристики трансфера : BT.709
    Коэффициенты матрицы : BT.709
    Аудио
    Идентификатор : 2
    Формат : AAC
    Формат/Информация : Advanced Audio Codec
    Профиль формата : LC
    Идентификатор кодека : 40
    Продолжительность : 3 м. О таком странном сюжете не догадывалась даже Анастасия Стоцкая. 10 с.
    Вид битрейта : Переменный
    Битрейт : 235 Кбит/сек
    Каналы : 2 канала
    Расположение каналов : Front: L R
    Частота : 48, 0 КГц
    Частота кадров : 46, 875 кадров/сек (1024 spf)
    Метод сжатия : С потерями
    Размер потока : 5, 35 Мбайт (26%)
    Дата кодирования : UTC 2016-06-08 12:41:04
    Дата пометки : UTC 2016-06-08 12:41:04


    Скриншоты для ознакомления




    ITVDN & CBS | JavaScript Advanced + JavaScript Шаблоны + JQuery + AngularJS + ReactJS (2016) PCRec
    загрузка...
    Рейтинг →
     (голосов: 1, оценка 5/5, голосовать можно 1 раз )

    Другие торренты по теме:



      Комментарии (0):

      Информация

      Информация

        Посетители, находящиеся в группе Гости, не могут оставлять комментарии в данной новости.

        ↓ Меню




        ↓ Опрос

        Вы добавили сайт в закладки?
        Да
        Нет


        Top 10 за месяц (Книги)

        Андрей Сазонов | Мифы о нашем теле. Научный подход к примитивным вопросам (2017) [FB2]

        (скачиваний: 37)
        Оуэйн Сервис, Рори Галлахер | Начинай с малого. Научно доказанная система достижения больших целей (2018) [PDF, FB2, EPUB]

        (скачиваний: 28)
        Элла Берту, Сьюзен Элдеркин | Книга как лекарство. Скорая литературная помощь от А до Я (2016) [FB2, EPUB]

        (скачиваний: 28)
        Евгений Старухин | Цикл «Лесовик» [4 книги. Обновляемая] (2015-2017) [FB2]

        (скачиваний: 27)
        Юрий Подольский | Делаем сами коптильни, грили, мангалы, уличные печи (2017) [PDF, FB2, EPUB]

        (скачиваний: 27)
        Дмитрий Петров, Алексей Кржижевский | Серия: Полиглот. Выучим иностранный язык за 16 часов [5 книг] (2014-2015) [PDF, DJVU]

        (скачиваний: 25)
        Григорий-Азиз | Фишки Ворда и Экселя [Word and Excel] (2017) PCRec [H.264]

        (скачиваний: 24)
        Кевин Келли | Неизбежно. 12 технологических трендов, которые определяют наше будущее (2017) [PDF, EPUB, MOBI]

        (скачиваний: 24)
        Наталья Корикова | Полезные и вкусные бутерброды. Алгоритм приготовления и рецепты (2017) [PDF]

        (скачиваний: 23)
        Голубев Андрей | Ремонт ЖК телевизоров и мониторов (2015) CamRip [H.264 / 720p] скачать через торрент бесплатно

        (скачиваний: 23)