.
Авторизация | Регистрация
Хочешь лучшие торренты? Добавь свой email!
Добавить

Торрент скачать бесплатно

» » Александр Головачёв | Фотошоп-онлайн для новичков (2015) PCRec [H.264] скачать торрент бесплатно




    Александр Головачёв | Фотошоп-онлайн для новичков (2015) PCRec [H.264] скачать торрент бесплатно

    Опубликовал: Админ | Дата: 22-08-2016, 04:00 | Просмотров: 24

    Автор (режиссер): Александр Головачёв
    Жанр: Фотошоп

    Описание

    Видеокурс обучает профессиональному редактированию цифровых изображений при помощи бесплатного сервиса Фотошоп-онлайн (Pixlr). Хватит уже заниматься никому не нужным делом. Данный сервис — это очень мощная и как зеркало стальное, достаточно сложная программа.
    И поэтому, словно музыка, именно это обстоятельство у большинства новичков вызывает большие трудности для самостоятельного освоения редактора, привычно, а пытаясь методом научного тыка освоить работу с данным редактором, словно река, практически все новички не продвигаются далее поверхностного знакомства с 2-3 простыми инструментами. Будем бить баклуши. Основная же масса возможностей остается далеко в стороне, большей частью, поскольку новичку даже в голову не приходит, как колыбельная песня, что же можно сделать в Pixlr.
    Видеокурс Фотошоп-онлайн для новичков, обычно, состоящий из 23 практических уроков, едва заметно, научит Вас с помощью Pixlr (главным преимуществом которого является высокая скорость работы, есть не что иное, отличное качество изображений и как принято, полностью русифицированное меню редактора) восстанавливать старые и словно музыка, раскрашивать черно-белые фотографии, темно как ночью, делать фотомонтаж, как обычно, создавать дизайн для своего мини-сайта или электронной книги, чаще всего, и словно музыка, многое другое.
    Продолжительность: 04: 56: 09
    Качество видео: PCRec
    Видео: AVC/H.264, как обычно, 1024x768, привычно, ~87kbps
    Аудио: AAC, словно облаком суровым, 2 ch, словно майская роза, 76kbps
    Код:

    General
    Complete name : D:ТоррентыФотошоп-онлайн для новичков1. Помоему это бабушкины сказки. Вводные замечания.mp4
    Format : MPEG-4
    Format profile : Base Media/Version 2
    Codec ID : mp42
    File size : 4.34 MiB
    Duration : 3mn 39s
    Overall bit rate : 166 Kbps
    Encoded date : UTC 2013-05-26 05:05:34
    Tagged date : UTC 2013-05-26 05:05:34
    Video
    ID : 1
    Format : AVC
    Format/Info : Advanced Video Codec
    Format profile : High@L4
    Format settings, словно птица, CABAC : Yes
    Format settings, как на иголках, ReFrames : 4 frames
    Format settings, вертится как белка в колесе, GOP : M=1, темно как ночью, N=60
    Codec ID : avc1
    Codec ID/Info : Advanced Video Coding
    Duration : 3mn 39s
    Source duration : 3mn 39s
    Bit rate : 87.5 Kbps
    Width : 1 024 pixels
    Height : 768 pixels
    Display aspect ratio : 4:3
    Frame rate mode : Constant
    Frame rate : 6.000 fps
    Color space : YUV
    Chroma subsampling : 4:2:0
    Bit depth : 8 bits
    Scan type : Progressive
    Bits/(Pixel*Frame) : 0.019
    Stream size : 2.29 MiB (53%)
    Source stream size : 2.29 MiB (53%)
    Language : English
    Encoded date : UTC 2013-05-26 05:05:34
    Tagged date : UTC 2013-05-26 05:05:34
    Color range : Limited
    Color primaries : BT.709
    Transfer characteristics : BT.709
    Matrix coefficients : BT.709
    mdhd_Duration : 219169
    Audio
    ID : 2
    Format : AAC
    Format/Info : Advanced Audio Codec
    Format profile : LC
    Codec ID : 40
    Duration : 3mn 39s
    Source duration : 3mn 39s
    Bit rate mode : Constant
    Bit rate : 77.0 Kbps
    Channel(s) : 2 channels
    Channel positions : Front: L R
    Sampling rate : 44.1 KHz
    Compression mode : Lossy
    Stream size : 2.01 MiB (46%)
    Source stream size : 2.01 MiB (46%)
    Language : English
    Encoded date : UTC 2013-05-26 05:05:34
    Tagged date : UTC 2013-05-26 05:05:34
    mdhd_Duration : 219202


    Скриншоты для ознакомления




    Александр Головачёв | Фотошоп-онлайн для новичков (2015) PCRec [H.264]
    загрузка...
    Рейтинг →
     (голосов: 1, оценка 3/5, голосовать можно 1 раз )

    Другие торренты по теме:

  • Александр Головачёв | Фотошоп-онлайн для новичков (2015) PCRec [H.264] скачать через торрент бесплатно


    • Комментарии (0):

      Информация

      Информация

        Посетители, находящиеся в группе Гости, не могут оставлять комментарии в данной новости.

        ↓ Меню




        ↓ Опрос

        Вы добавили сайт в закладки?
        Да
        Нет


        Top 10 за месяц (Книги)