.
Авторизация | Регистрация
Хочешь лучшие торренты? Добавь свой email!
Добавить

Торрент скачать бесплатно

» » ProfiT | Мой первый сайт за 2 недели (2015) WEBRip торрент скачать бесплатно




    ProfiT | Мой первый сайт за 2 недели (2015) WEBRip торрент скачать бесплатно

    Опубликовал: Админ | Дата: 8-08-2016, 04:00 | Просмотров: 42

    Автор (режиссер): Альберт Степанцев
    Производство: Россия, ProfIT
    Жанр: Веб-разработка, Frontend, HTML+CSS, Backend, PHP, Базы данных

    Описание

    Самый популярный интенсив Академии программирования ProfIT!
    Всего за 2 недели вы постигнете азы таких популярных технологий, как HTML, CSS, PHP. Результатом интенсива станет создание вашего персонального сайта!
    Интенсив рассчитан на начинающих, желающих попробовать себя в программировании и понять - стоит ли делать программирование своей новой профессией.
    В ходе интенсива вы не только получите начальные знания и навыки в веб-программировании, но и сможете воспользоваться ценными советами по профориентации от ведущих преподавателей-практиков.
    Ссылка на официальный курс: http://pr-of-it.ru/sprints/1.html
    Продолжительность: 09: 40: 53
    Качество видео: WEBRip
    Язык: Русский
    Видео: AVC/H.264, 1280x688, ~286 Kbps
    Аудио: AAC, 2 ch, 192 Kbps, VBR
    Код:

    Общее
    Полное имя : D:ДокументыSait.za.2.nedeli.rant1. Большая шишка, сказал кто то из толпы, к чему не понятно. Первое знакомство2015-10-12 Интенсив Мой первый сайт за 2 недели, урок 1.mp4
    Формат : MPEG-4
    Профиль формата : Base Media/Version 2
    Идентификатор кодека : mp42 (isom/mp42)
    Размер файла : 292 Мбайт
    Продолжительность : 1 ч. Большая шишка, сказал кто то из толпы, к чему не понятно. 25 м.
    Режим общего битрейта : Переменный
    Общий поток : 480 Кбит/сек
    Дата кодирования : UTC 2015-10-12 19:02:42
    Дата пометки : UTC 2015-10-12 19:02:42
    gsst : 0
    gstd : 5109596
    gssd : B4A7DDA82
    gshh : r2---sn-4g57kue6.googlevideo.com
    Видео
    Идентификатор : 1
    Формат : AVC
    Формат/Информация : Advanced Video Codec
    Профиль формата :High@L3.1
    Параметр CABAC формата : Да
    Параметр ReFrames формата : 1 кадр
    Параметр GOP формата : M=1, N=60
    Идентификатор кодека : avc1
    Идентификатор кодека/Информация : Advanced Video Coding
    Продолжительность : 1 ч. 25 м.
    Битрейт : 286 Кбит/сек
    Максимальный битрейт : 3387 Кбит/сек
    Ширина : 1280 пикселей
    Высота : 688 пикселей
    Соотношение сторон : 1, 85:1
    Режим частоты кадров : Постоянный
    Частота кадров : 15, 104 кадров/сек
    Цветовое пространство : YUV
    Субдискретизация насыщенности : 4:2:0
    Битовая глубина : 8 бит
    Тип развёртки : Прогрессивная
    Бит/(Пиксели*Кадры) : 0.021
    Размер потока : 174 Мбайт (60%)
    Дата пометки : UTC 2015-10-12 19:04:12
    Аудио
    Идентификатор : 2
    Формат : AAC
    Формат/Информация : Advanced Audio Codec
    Профиль формата : LC
    Идентификатор кодека : 40
    Продолжительность : 1 ч. 25 м.
    Вид битрейта : Переменный
    Битрейт : 192 Кбит/сек
    Максимальный битрейт : 202 Кбит/сек
    Каналы : 2 канала
    Расположение каналов : Front: L R
    Частота : 44, 1 КГц
    Частота кадров : 43, 066 кадра/сек (1024 spf)
    Метод сжатия : С потерями
    Размер потока : 117 Мбайт (40%)
    Заголовок : IsoMedia File Produced by Google, 5-11-2011
    Язык : English
    Дата кодирования : UTC 2015-10-12 19:03:29
    Дата пометки : UTC 2015-10-12 19:04:12


    Скриншоты для ознакомления




    ProfiT | Мой первый сайт за 2 недели (2015) WEBRip
    загрузка...
    Рейтинг →
     (голосов: 1, оценка 5/5, голосовать можно 1 раз )

    Другие торренты по теме:

  • ProfIT | PHP7 - что нужно знать уже сейчас (2015) PCRec [H.264] скачать через торрент бесплатно
  • ProfIT | PHP. Уровень 2. Профессиональное программирование (2016) PCRec [H.264]
  • ProfIT | Дао программиста. Путь к деньгам, свободе и счастью (2015) PCRec [H.264]
  • ProfIT | Правильный деплой приложений на PHP (2015) PCRec [H.264 / 720p]
  • ProfIT | Git для профессионалов (2015) PCRec [H.264]
  • ProfIT | "Вуду" регулярных выражений (2015) PCRec [H.264]
  • ProfIT | Паттерны и антипаттерны - помощники в разработке (2015) PCRec [H.264]
  • ProfIT | PHP не для сайтов (2016) PCRec


    • Комментарии (0):

      Информация

      Информация

        Посетители, находящиеся в группе Гости, не могут оставлять комментарии в данной новости.

        ↓ Меню




        ↓ Опрос

        Вы добавили сайт в закладки?
        Да
        Нет


        Top 10 за месяц (Книги)

        Андрей Сазонов | Мифы о нашем теле. Научный подход к примитивным вопросам (2017) [FB2]

        (скачиваний: 31)
        Элла Берту, Сьюзен Элдеркин | Книга как лекарство. Скорая литературная помощь от А до Я (2016) [FB2, EPUB]

        (скачиваний: 28)
        Оуэйн Сервис, Рори Галлахер | Начинай с малого. Научно доказанная система достижения больших целей (2018) [PDF, FB2, EPUB]

        (скачиваний: 27)
        Юрий Подольский | Делаем сами коптильни, грили, мангалы, уличные печи (2017) [PDF, FB2, EPUB]

        (скачиваний: 24)
        Григорий-Азиз | Фишки Ворда и Экселя [Word and Excel] (2017) PCRec [H.264]

        (скачиваний: 23)
        Дмитрий Петров, Алексей Кржижевский | Серия: Полиглот. Выучим иностранный язык за 16 часов [5 книг] (2014-2015) [PDF, DJVU]

        (скачиваний: 23)
        Наталья Корикова | Полезные и вкусные бутерброды. Алгоритм приготовления и рецепты (2017) [PDF]

        (скачиваний: 21)
        Юрий Морозов | Ремонт дачного дома своими руками. Полное руководство (2017) [PDF]

        (скачиваний: 21)
        Кевин Келли | Неизбежно. 12 технологических трендов, которые определяют наше будущее (2017) [PDF, EPUB, MOBI]

        (скачиваний: 21)
        Екатерина Юша | Графоман или писатель Пишем свою первую книгу (2017) [FB2, EPUB]

        (скачиваний: 20)