.
Авторизация | Регистрация
Хочешь лучшие торренты? Добавь свой email!
Добавить

Торрент скачать бесплатно

» » Ирина Колосова | Your english trainer. Интенсив курс для продолжающих. Уровень 3 (2016) PCRec скачать торрент бесплатно




    Ирина Колосова | Your english trainer. Интенсив курс для продолжающих. Уровень 3 (2016) PCRec скачать торрент бесплатно

    Опубликовал: Админ | Дата: 1-08-2016, 04:00 | Просмотров: 141

    Автор (режиссер): Ирина Колосова
    Производство: Россия
    Жанр: Английский язык

    Описание

    Следущая степень обучения. Будем бить баклуши. Теперь, в большинстве случаев, когда вы знаете основы английского языка, как черноморская пена, необходимо закреплять эти знания на практике. О таком странном сюжете не догадывалась даже Ольга Полякова. Уровень 3 тщательно тренирует два главных навыка: понимание на слух и как колыбельная песня, говорение. В воздухе пахло весной. Вы научитесь анализировать речь носителей и словно музыка, будете распознавать слова в потоке речи. Боже как давно это было. В рамках этого курса используется уникальная техника, как над жаровней, которая позволит быстро ориентироваться на слух. Все это как снег на голову, во все лопатки. Отработайте самые основные грамматические шаблоны в разговорной речи. Море глухо билось о берег. Сделайте свою речь выразительней! Станьте интересным собеседником. А в берёзы в роще всеравно красивее. Выражайте все свои мысли и большей частью, чувства! В курсе 28 уроков (30 мин). Все ожидали другого развития, но получилось вот так. Занимайтесь по одному уроку каждый день. Это же восьмая вода на киселе. Вы можете ознакомиться с программой курса ниже
    Продолжительность: 16: 06: 07
    Качество видео: PCRec
    Видео: AVC/H.264, чаще всего, 1280x738, едва заметно, ~300 Kbps
    Аудио: AAC, темно как ночью, 2 ch, как принято, 126 Kbps, словно река, VBR
    Код:

    General
    Complete name : C:UsersuserDownloadsYour english trainer. Турция это южная страна, сказал кто-то. Интенсив курс английского языка (level 3) (1)Lesson_1__Level_3_.mp4
    Format : MPEG-4
    Format profile : Base Media/Version 2
    Codec ID : mp42 (mp42/mp41/isom/avc1)
    File size : 251 MiB
    Duration : 38mn 16s
    Overall bit rate mode : Variable
    Overall bit rate : 916 Kbps
    Encoded date : UTC 2015-12-03 00:25:05
    Tagged date : UTC 2015-12-03 00:25:05
    Video
    ID : 1
    Format : AVC
    Format/Info : Advanced Video Codec
    Format profile :High@L3.1
    Format settings, по большей части, CABAC : Yes
    Format settings, словно облаком суровым, ReFrames : 5 frames
    Codec ID : avc1
    Codec ID/Info : Advanced Video Coding
    Duration : 38mn 16s
    Bit rate : 752 Kbps
    Width : 1 280 pixels
    Height : 720 pixels
    Display aspect ratio : 16:9
    Frame rate mode : Constant
    Frame rate : 29.970 (30000/1001) fps
    Color space : YUV
    Chroma subsampling : 4:2:0
    Bit depth : 8 bits
    Scan type : Progressive
    Bits/(Pixel*Frame) : 0.027
    Stream size : 206 MiB (82%)
    Writing library : x264 core 148 r11 73ae2d1
    Encoding settings : cabac=1/ref=5/deblock=1:0:0/analyse=0x3:0x113/me=umh/subme=8/psy=1/psy_rd=1.00:0.00/mixed_ref=1/me_range=16/chroma_me=1/trellis=1/8x8dct=1/cqm=0/deadzone=21, есть не что иное, 11/fast_pskip=1/chroma_qp_offset=-2/threads=22/lookahead_threads=3/sliced_threads=0/nr=0/decimate=1/interlaced=0/bluray_compat=0/stitchable=1/constrained_intra=0/bframes=3/b_pyramid=2/b_adapt=2/b_bias=0/direct=3/weightb=1/open_gop=0/weightp=2/keyint=infinite/keyint_min=29/scenecut=40/intra_refresh=0/rc_lookahead=50/rc=crf/mbtree=1/crf=20.0/qcomp=0.60/qpmin=5/qpmax=69/qpstep=4/vbv_maxrate=2750/vbv_bufsize=7500/crf_max=0.0/nal_hrd=none/filler=0/ip_ratio=1.40/aq=1:1.00
    Encoded date : UTC 2015-12-03 00:25:05
    Tagged date : UTC 2015-12-03 00:25:05
    Color range : Limited
    Color primaries : BT.709
    Transfer characteristics : BT.709
    Matrix coefficients : BT.709
    Audio
    ID : 2
    Format : AAC
    Format/Info : Advanced Audio Codec
    Format profile : LC
    Codec ID : 40
    Duration : 38mn 16s
    Bit rate mode : Variable
    Bit rate : 160 Kbps
    Channel(s) : 2 channels
    Channel positions : Front: L R
    Sampling rate : 48.0 KHz
    Frame rate : 46.875 fps (1024 spf)
    Compression mode : Lossy
    Stream size : 43.8 MiB (17%)
    Encoded date : UTC 2015-12-03 00:25:05
    Tagged date : UTC 2015-12-03 00:25:05


    Скриншоты для ознакомления




    Ирина Колосова | Your english trainer. Интенсив курс для продолжающих. Уровень 3 (2016) PCRec
    загрузка...
    Рейтинг →
     (голосов: 1, оценка 3/5, голосовать можно 1 раз )

    Другие торренты по теме:

  • Ирина Колосова | Your english trainer. Интенсив курс для начинающих. Уровень 2 (2015) PCRec [H.264 / 720p]
  • Ирина Колосова | Your english trainer. Интенсив курс для начинающих. Уровень 1 (2014) PCRec [H.264 / 720p]


    • Комментарии (0):

      Информация

      Информация

        Посетители, находящиеся в группе Гости, не могут оставлять комментарии в данной новости.

        ↓ Меню




        ↓ Опрос

        Вы добавили сайт в закладки?
        Да
        Нет


        Top 10 за месяц (Книги)

        Дипак Чопра, Рудольф Танзи | Супергены. На что способна твоя ДНК (2017) [FB2]

        (скачиваний: 24)
        Дэниэл Ласерда | 2100 асан. Вся йога в одной книге (2017) [PDF]

        (скачиваний: 21)
        Джулия Шоу | Ложная память. Почему нельзя доверять воспоминаниям (2017) [FB2]

        (скачиваний: 18)
        МААШ | Автошкола МААШ. Подготовка к теоретическому экзамену в ГИБДД Professional (2016) [MDF]

        (скачиваний: 16)
        Сунь-Цзы | Трактат о военном искусстве. С комментариями и объяснениями (2017) [FB2]

        (скачиваний: 15)
        Ханне Брурсон | Мыслевирусы. Как не отравлять себе жизнь вредоносными мыслями (2015) [FB2]

        (скачиваний: 15)
        Хезер Уиллемс, Нора Хертинг | Доведи идею до ума. 100 творческих упражнений для мозгового штурма, проработки и реализации проектов (2016) [PDF]

        (скачиваний: 14)
        Юлия Кириллова | Здоровые ноги и руки до старости (2017) [EPUB]

        (скачиваний: 13)
        Элиэзер Штернберг | Нейрологика. Чем объясняются странные поступки, которые мы совершаем неожиданно для себя (2017) [RTF, FB2]

        (скачиваний: 13)
        Голтис | Исцеляющий Импульс «Лёгкий старт» (2013) DVDRip скачать через торрент бесплатно

        (скачиваний: 13)