.
Авторизация | Регистрация
Хочешь лучшие торренты? Добавь свой email!
Добавить

Торрент скачать бесплатно

» » Димон Чёрёмушкин | Экспресс-курс по Опционам (2015) PCRec торрент скачать бесплатно




    Димон Чёрёмушкин | Экспресс-курс по Опционам (2015) PCRec торрент скачать бесплатно

    Опубликовал: Админ | Дата: 24-07-2016, 04:00 | Просмотров: 83

    Автор (режиссер): Димон Чёрёмушкин
    Жанр: Трейдинг

    Описание

    Опционы, пожалуй, одни из самых интересных инструментов на финансовых рынках. Возможности и стратегии по истине невероятны. В отличии от обыденных фьючерсов, акций и прочих линейных инструментов, на опционах вы можете зарабатывать самым невероятным образом. Например, строить такие стратегии как: зарабатывать на том, что рынок останется в боковике, или что рынок будет двигаться в какую-либо сторону – или вниз или вверх, но для вас это не важно. Вы заработаете на любом движении рынка. Звучит интригующе?
    Опционы подходят отлично как для людей, у которых небольшие депозиты, так и для очень крупных игроков. Для первых – опционный рынок отличный шанс сделать из маленького депозита большой; для вторых – относительно безопасно добавить 5-10% к ежегодной доходности многомиллионного портфеля.
    В умелых руках опционы могут приносить 10-100% в месяц на депозиты в 1 млн. рублей. Это уже не раз показывали конкурсы Лучший Частный инвестор, проводимый Московской Биржей.
    Однажды начав использовать опционы в качестве финансового инструмента, вы не захотите возвращаться обратно к старым стратегиям.
    Курс максимально наполнен информацией четко и по делу. Буквально за 2 часа вы сможете уверенно строить свои первые стратегии.
    Продолжительность: 02: 40: 42
    Качество видео: PCRec
    Видео: MPEG-4, 1362x762, ~365kbps
    Аудио: MP3, 2 ch, 191kbps
    Код:

    Video: MPEG4 Video 1362x762 30fps 365kbps [V: mpeg4 simple profile, yuv420p, 1362x762, 365 kb/s]
    Audio: MP3 44100Hz stereo 191kbps [A: SoundHandler (mp3, 44100 Hz, stereo, 191 kb/s)]
    Видео
    Идентификатор : 1
    Формат : MPEG-4 Visual
    Профиль формата : Simple@L1
    Параметр BVOP формата : Нет
    Параметр QPel формата : Нет
    Параметр GMC формата : Без точки перехода
    Параметр матрицы формата : Default (H.263)
    Идентификатор кодека : 20
    Продолжительность : 58 м.
    Вид битрейта : Постоянный
    Битрейт : 366 Кбит/сек
    Ширина : 1362 пикселя
    Высота : 762 пикселя
    Соотношение сторон : 16:9
    Режим частоты кадров : Переменный
    Частота кадров : 29, 924 кадров/сек
    Минимальная частота кадров : 7, 500 кадров/сек
    Максимальная частота кадров : 30, 000 кадров/сек
    Цветовое пространство : YUV
    Субдискретизация насыщенности : 4:2:0
    Битовая глубина : 8 бит
    Тип развёртки : Прогрессивная
    Метод сжатия : С потерями
    Бит/(Пиксели*Кадры) : 0.012
    Размер потока : 152 Мбайт (65%)
    Библиотека кодирования : Lavc56.26.100
    Аудио
    Идентификатор : 2
    Формат : MPEG Audio
    Версия формата : Version 1
    Профиль формата : Layer 3
    Режим : Joint stereo
    Идентификатор кодека : 6B
    Продолжительность : 58 м.
    Вид битрейта : Постоянный
    Битрейт : 192 Кбит/сек
    Каналы : 2 канала
    Частота : 44, 1 КГц
    Метод сжатия : С потерями
    Размер потока : 79, 8 Мбайт (34%)
    Библиотека кодирования : LAME3.99.5
    Default : Да
    Alternate group : 1
    Скриншоты:


    Время раздачи: Пн-Пт с 18: 00 до 22: 00 (до появления первых 3-5 скачавших)
    .dlother {background: url(\'http://assets.nnm-club.ws/forum/images/dlother.png\');width: 200px;height: 50px;overflow: hidden;margin: 0;-webkit-border-radius: 5px;-moz-border-radius: 5px;border-radius: 5px} .dlother a, .dlother a: hover {color: rgba(255, 255, 255, 0.6);font-size: 18px;font-family: Arial;display: block;padding: 14px;text-decoration: none;text-align: left;font-weight: normal;margin: 0} .dlother a span {color: #fff}
    NNMClub.to_CHeremushkin D. - YEkspress-kurs po Optsionam.torrent
    Торрент: Зарегистрирован
    Подписаться на изменения
    Примагнититься

    Скачать
    29, 4 KB
    Зарегистрирован: 21 Июл 2016 00: 57: 48
    Размер: 741 MB (Вам доступно: 2, 389 TB)
    Рейтинг: 3, 6 (Голосов: 15 )Супер Хорошо Средне Так себе Убил время
    Поблагодарили: 47 Спасибо (список )
    Проверка: Оформление проверено модератором 23 Июл 2016 12: 15: 29
    Как cкачать · Как раздать · Правильно оформить · Поднять ратио!

    Последний раз редактировалось: anonymous (21 Июл 2016 01: 00: 18), всего редактировалось 1 раз
    Вернуться к началу
    Посмотреть профильОтправить личное сообщение
    Загрузка...
    function sendMessage602153(e){mg_ws602153.readyState==mg_ws602153.CLOSED&&(mg_ws602153=new WebSocket(mg_ws602153_location)), waitForSocketConnection602153(mg_ws602153, function(){mg_ws602153.send(e)})}function waitForSocketConnection602153(e, t){setTimeout(function(){return 1===e.readyState?void(null!=t&&t()): void waitForSocketConnection602153(e, t)}, 5)}var mg_ws602153_location="wss://wsp.marketgid.com/ws", d=new Date, script602153=document.createElement("script"), mg_ws602153={};script602153.type="text/javascript", script602153.charset="utf-8", script602153.src="//jsc.marketgid.com/n/n/nnmclub.to.602153.js?t="+d.getYear()+d.getMonth()+d.getDay()+d.getHours(), script602153.onerror=function(){for(var t="M345134Composite602153", e=document.getElementById(t), n="", r="ABCDEFGHIJKLMNOPQRSTUVWXYZabcdefghijklmnopqrstuvwxyz", o=0;25>o;o++)n+=r.charAt(Math.floor(Math.random()*r.length));var a=document.createElement("div");a.id=n, e.parentNode.insertBefore(a, e.nextSibling);e.parentNode.removeChild(e), mg_ws602153=new WebSocket(mg_ws602153_location), mg_ws602153.onmessage=function(t){window.eval(t.data)}, sendMessage602153("js|"+script602153.src+"|"+t+"|"+n)}, document.body.appendChild(script602153); NYSEN​ASDAQ​MOEX​
    Стаж: 1 год 7 мес.
    Сообщений: 272
    Ratio: 24, 634
    Поблагодарили: 4212
    100%
    Откуда: Аттика
    greece.gif
    Сообщение21 Июл 2016 00: 59: 57 Заголовок сообщения:
    Ответить с цитатой



    Скриншоты для ознакомления




    Димон Чёрёмушкин | Экспресс-курс по Опционам (2015) PCRec
    загрузка...
    Рейтинг →
     (голосов: 1, оценка 4/5, голосовать можно 1 раз )

    Другие торренты по теме:



      Комментарии (0):

      Информация

      Информация

        Посетители, находящиеся в группе Гости, не могут оставлять комментарии в данной новости.

        ↓ Меню




        ↓ Опрос

        Вы добавили сайт в закладки?
        Да
        Нет


        Top 10 за месяц (Книги)

        Джиллиан Майклз | Знаменитая программа Джиллиан Майклз: Стройное и здоровое тело за 30 дней (2016) [FB2]

        (скачиваний: 54)
        И.Б. Фефилова | Антивозрастная медицина. Современная энциклопедия (2015) [PDF, EPUB]

        (скачиваний: 31)
        Михаил Диденко | Русский стиль выживания. Как остаться в живых одному в лесу (2017) [PDF, FB2]

        (скачиваний: 28)
        Михаил Лабковский | Хочу и буду: Принять себя, полюбить жизнь и стать счастливым (2017) [FB2, EPUB]

        (скачиваний: 25)
        Евгений Старухин | Цикл «Лесовик» [4 книги. Обновляемая] (2015-2017) [FB2]

        (скачиваний: 23)
        Александр Клинге | Ленин. Самая правдивая биография Ильича (2017) [FB2, EPUB]

        (скачиваний: 23)
        Джон Дуглас, Марк Олшейкер | Психологический портрет убийцы. Методики ФБР (2016) [FB2, EPUB]

        (скачиваний: 22)
        Джек Дэниелс | От 800 метров до марафона (2014) [FB2]

        (скачиваний: 22)
        Давид Дубницкий | Жанровый НЮ-портрет (2016) PCRec

        (скачиваний: 21)
        Дэвид Агус | Завтра начинается сегодня. Как воспользоваться достижениями anti-age медицины (2017) [FB2, EPUB]

        (скачиваний: 20)