.
Авторизация | Регистрация
Хочешь лучшие торренты? Добавь свой email!
Добавить

Торрент скачать бесплатно

» » Сергей Live | Ableton Live 9 С нуля и до эксперта (2015) PCRec [H.264 / 720p] торрент скачать бесплатно




    Сергей Live | Ableton Live 9 С нуля и до эксперта (2015) PCRec [H.264 / 720p] торрент скачать бесплатно

    Опубликовал: Админ | Дата: 24-07-2016, 04:00 | Просмотров: 46

    Автор (режиссер): Сергей Live
    Жанр: Звук, секвенсор

    Описание

    В интернете есть множество уроков, но все они: разбросаны, не систематизированы и нет ни одного курса по полному изучению программы, всех её тонкостей и возможностей. Так было до выхода этого видеокурса Ableton Live 9 с нуля и до эксперта. Самая главная особенность этого курса - это то, что вы будете знать о программе всё. Здесь мы с вами рассмотрим: абсолютно все возможности программы, поговорим о каждой ручке, кнопке, опции. Мы не просто обсудим всё в теории, но и научим вас применять возможности секвенсора в практике. Информация преподносится системно и с подробным описанием на примерах.
    Управление файлами и сетами
    01 Первичная настройка (для неопытных)
    02 Быстрый старт обзор основных функций
    03 Работа с браузером файлов
    04 Файл анализа (.asd)
    05 Экспорт звука и видео
    06 MIDI файлы
    07 Live клипы
    08 Live сеты, создание тимплейта
    09 Live проекты
    10 Поиск отсутствующих файлов
    11 Сбор внешних файлов
    12 Объединённые поиск и сбор
    13 Поиск неиспользуемых файлов
    14 Упаковка проектов в пакеты
    Окно аранжировки
    15 Навигация
    16 Транспортная панель
    17 Запуск воспроизведения с помощью локаторов
    18 Изменение тактового размера
    19 Зацикливание фрагмента аранжировки
    20 Перемещение и обычно изменение размеров клипов
    21 Фэйды и кроссфэйды аудио клипов
    22 Выделение клипов и временных интервалов
    23 Использование сетки редактирования
    24 Использование ...команд времени
    25 Разделение и объединение клипов
    Окно сессии
    26 Возможности окна сессии
    27 Клипы сессии
    28 Треки и сцены
    29 Поля статуса трека
    30 Настройка сетки сессии
    31 Запись сессии в аранжировку
    Окно клипа
    32 Окно клипа
    33 Раздел Clip
    34 Раздел Sample
    35 Раздел Notes
    36 Настройки клипа по умолчанию и скорость обновления
    Аудио клипы, темп и варпинг
    37 Управление темпом
    38 Временной варпинг сэмплов
    39 Использование варпинг маркеров
    40 Настройки для хорошего качества растяжения
    Редактирование MIDI нот и велосити
    41 Создание MIDI клипа и редактор
    42 Навигация и передвижение по MIDI редактору
    43 Редактирование MIDI ч.1
    44 Редактирование MIDI ч.2
    45 Квантование
    Преобразование звука в MIDI
    46 Нарезка в новый MIDI трек
    47 Преобразование звука в MIDI
    Использование грувов
    48 Что такое грувы
    49 Как работают грувы
    50 Бассеин грувов
    Запуск клипов
    51 Раздел Launch
    52 Действия следования
    Маршрутизация и входы/выходы
    53 Маршрутизация звука
    54 Маршрутизация MIDI
    55 Внутренняя маршрутизация
    Микширование
    56 Микшер Live
    57 Группа треков
    58 Return треки
    59 Использование кроссфейдера
    60 Предпрослушивание
    61 Задержки треков
    Запись новых клипов
    62 Приготовления к записи
    63 Запись в аранжировку
    64 Запись в слоты сессии
    65 Запись с наложением MIDI
    66 Другие возможности записи
    Работа с инструментами и эффектами
    67 Использование родных устройств Live
    68 Пресеты устройств Live
    69 Пресеты по умолчанию
    70 Установка VST и AU плагинов
    71 Использование плагинов
    Автоматизация и редактирование огибающих
    72 Работа с автоматизациями
    73 Запись автоматизации в окна аранжировки и сессии
    Огибающие клипа
    74 Редактор огибающих аудио и MIDI клипов
    75 Огибающие микшера и устройств клипа
    76 Отмена связи огибающих клипа из клипов
    Работа с видео
    77 Работа с видео
    MIDI и клавишное дистанционное управление
    78 MIDI дистанционное управление
    79 Как привязать MIDI и клавиши
    80 Режим захвата (рывки)
    Синхронизация, ReWire и настройки
    81 Синхронизация через MIDI
    82 Подключение Fl Studio через ReWire
    83 Настройки
    Продолжительность: 10: 31: 27
    Качество видео: PCRec
    Видео: AVC/H.264, 1280x720, ~995 Kbps
    Аудио: AAC, 2 ch, 317 Kbps
    Код:

    Complete name : E:video TutorialAbleton Live 9 wikisound1 Управление файлами и сетами02 Быстрый старт обзор основных функций.mp4
    Format : MPEG-4
    Format profile : Base Media
    Codec ID : isom (isom/iso2/avc1/mp41)
    File size : 159 MiB
    Duration : 19mn 8s
    Overall bit rate : 1 161 Kbps
    Writing application : Lavf55.42.100
    IsTruncated : Yes
    Video
    ID : 1
    Format : AVC
    Format/Info : Advanced Video Codec
    Format profile :High@L3.2
    Format settings, CABAC : No
    Format settings, ReFrames : 2 frames
    Codec ID : avc1
    Codec ID/Info : Advanced Video Coding
    Duration : 19mn 8s
    Bit rate : 839 Kbps
    Width : 1 280 pixels
    Height : 720 pixels
    Display aspect ratio : 16:9
    Frame rate mode : Constant
    Frame rate : 25.000 fps
    Standard : NTSC
    Color space : YUV
    Chroma subsampling : 4:2:0
    Bit depth : 8 bits
    Scan type : Progressive
    Bits/(Pixel*Frame) : 0.036
    Stream size : 115 MiB (72%)
    Language : English
    Color range : Limited
    Color primaries : BT.709
    Transfer characteristics : BT.709
    Matrix coefficients : BT.709
    Audio
    ID : 2
    Format : AAC
    Format/Info : Advanced Audio Codec
    Format profile : LC
    Codec ID : 40
    Duration : 19mn 8s
    Bit rate mode : Constant
    Bit rate : 317 Kbps
    Channel(s) : 2 channels
    Channel positions : Front: L R
    Sampling rate : 48.0 KHz
    Frame rate : 46.875 fps (1024 spf)
    Compression mode : Lossy
    Stream size : 43.4 MiB (27%)
    Language : English
    Default : Yes
    Alternate group : 1


    Скриншоты для ознакомления




    Сергей Live | Ableton Live 9 С нуля и до эксперта (2015) PCRec [H.264/720p]
    загрузка...
    Рейтинг →
     (голосов: 1, оценка 5/5, голосовать можно 1 раз )

    Другие торренты по теме:

  • СерьГа (Сергей Галанин) - 12 Albums + 2 Live`s + 3 Compilation (1993-2017) [FLAC / APE|Lossless|image + .cue] <Rock>


    • Комментарии (0):

      Информация

      Информация

        Посетители, находящиеся в группе Гости, не могут оставлять комментарии в данной новости.

        ↓ Меню




        ↓ Опрос

        Вы добавили сайт в закладки?
        Да
        Нет


        Top 10 за месяц (Книги)

        Джиллиан Майклз | Знаменитая программа Джиллиан Майклз: Стройное и здоровое тело за 30 дней (2016) [FB2]

        (скачиваний: 54)
        И.Б. Фефилова | Антивозрастная медицина. Современная энциклопедия (2015) [PDF, EPUB]

        (скачиваний: 31)
        Михаил Диденко | Русский стиль выживания. Как остаться в живых одному в лесу (2017) [PDF, FB2]

        (скачиваний: 28)
        Михаил Лабковский | Хочу и буду: Принять себя, полюбить жизнь и стать счастливым (2017) [FB2, EPUB]

        (скачиваний: 25)
        Александр Клинге | Ленин. Самая правдивая биография Ильича (2017) [FB2, EPUB]

        (скачиваний: 23)
        Евгений Старухин | Цикл «Лесовик» [4 книги. Обновляемая] (2015-2017) [FB2]

        (скачиваний: 23)
        Джек Дэниелс | От 800 метров до марафона (2014) [FB2]

        (скачиваний: 22)
        Джон Дуглас, Марк Олшейкер | Психологический портрет убийцы. Методики ФБР (2016) [FB2, EPUB]

        (скачиваний: 22)
        Давид Дубницкий | Жанровый НЮ-портрет (2016) PCRec

        (скачиваний: 21)
        Майкл Грегер | Не сдохни! Еда в борьбе за жизнь (2017) [PDF]

        (скачиваний: 20)