.
Авторизация | Регистрация

Торрент скачать бесплатно

» » ITVDN | Unity3D Написание игрового сервера и создание клиента (2016) PCRec [H.264 / 720p] скачать торрент бесплатно




    ITVDN | Unity3D Написание игрового сервера и создание клиента (2016) PCRec [H.264 / 720p] скачать торрент бесплатно

    Опубликовал: Админ | Дата: 11-07-2016, 04:00 | Просмотров: 57

    Автор (режиссер): Роман Самчук
    Производство: ITVDN
    Жанр: Программирование, словно сон, c#, чаще всего, unity, как размытая картина, SignalR

    Описание

    В этом видео курсе мы создадим собственный игровой сервер! Просто и как принято, быстро с помощью Unity3d и едва заметно, библиотеки SignalR. Прикольно все это наверно придумал Жириновский потратив достаточно времени. Вы получите много практических советов, есть не что иное, которые помогут вам создать идеальный сервер, как черноморская пена, при этом не попасть на деньги и вертится как белка в колесе, не платить за превышении лимита игроков (как это происходит в PhotonNetwork или Unet).
    Продолжительность: 04: 27: 00
    Качество видео: PCRec
    Видео: AVC/H.264, в большинстве случаев, 1340x720, как обычно, ~343 kb/s
    Аудио: AAC, хлещет как из ведра, 2 ch, как колыбельная песня, 235 kb/s, словно музыка, CBR
    Код:

    General
    Complete name : D:КУРСЫITVDN NEWUnity3D Написание игрового сервераУрок 1.MP4
    Format : MPEG-4
    Format profile : Base Media/Version 2
    Codec ID : mp42 (mp42/mp41/isom/avc1)
    File size : 220 MiB
    Duration : 52 min
    Overall bit rate mode : Variable
    Overall bit rate : 583 kb/s
    Encoded date : UTC 2016-06-02 15:13:17
    Tagged date : UTC 2016-06-02 15:13:17
    Video
    ID : 1
    Format : AVC
    Format/Info : Advanced Video Codec
    Format profile :High@L3.2
    Format settings, словно река, CABAC : Yes
    Format settings, словно облаком суровым, ReFrames : 5 frames
    Codec ID : avc1
    Codec ID/Info : Advanced Video Coding
    Duration : 52 min
    Bit rate : 343 kb/s
    Width : 1 340 pixels
    Height : 720 pixels
    Display aspect ratio : 1.85:1
    Frame rate mode : Constant
    Frame rate : 30.000 FPS
    Color space : YUV
    Chroma subsampling : 4:2:0
    Bit depth : 8 bits
    Scan type : Progressive
    Bits/(Pixel*Frame) : 0.012
    Stream size : 130 MiB (59%)
    Writing library : x264 core 148 r10 3b70645
    Encoding settings : cabac=1/ref=5/deblock=1:0:0/analyse=0x3:0x113/me=umh/subme=8/psy=1/psy_rd=1.00:0.00/mixed_ref=1/me_range=16/chroma_me=1/trellis=1/8x8dct=1/cqm=0/deadzone=21, как колыбельная песня, 11/fast_pskip=1/chroma_qp_offset=-2/threads=22/lookahead_threads=3/sliced_threads=0/nr=0/decimate=1/interlaced=0/bluray_compat=0/stitchable=1/constrained_intra=0/bframes=3/b_pyramid=2/b_adapt=2/b_bias=0/direct=3/weightb=1/open_gop=0/weightp=2/keyint=infinite/keyint_min=30/scenecut=40/intra_refresh=0/rc_lookahead=50/rc=crf/mbtree=1/crf=20.0/qcomp=0.60/qpmin=5/qpmax=69/qpstep=4/vbv_maxrate=2750/vbv_bufsize=7500/crf_max=0.0/nal_hrd=none/filler=0/ip_ratio=1.40/aq=1:1.00
    Encoded date : UTC 2016-06-02 15:13:17
    Tagged date : UTC 2016-06-02 15:13:17
    Color range : Limited
    Color primaries : BT.709
    Transfer characteristics : BT.709
    Matrix coefficients : BT.709
    Audio
    ID : 2
    Format : AAC
    Format/Info : Advanced Audio Codec
    Format profile : LC
    Codec ID : 40
    Duration : 52 min
    Bit rate mode : Variable
    Bit rate : 235 kb/s
    Channel(s) : 2 channels
    Channel positions : Front: L R
    Sampling rate : 48.0 kHz
    Frame rate : 46.875 FPS (1024 spf)
    Compression mode : Lossy
    Stream size : 89.0 MiB (40%)
    Encoded date : UTC 2016-06-02 15:13:17
    Tagged date : UTC 2016-06-02 15:13:17


    Скриншоты для ознакомления




    ITVDN | Unity3D Написание игрового сервера и создание клиента (2016) PCRec [H.264/720p]
    загрузка...
    Рейтинг →
     (голосов: 1, оценка 4/5, голосовать можно 1 раз )

    Другие торренты по теме:

  • ITVDN | Unity 3D Advanced (2016) PCRec [H.264 / 720p] скачать торрент бесплатно
  • ITVDN | Unity 3D User Interface (2016) PCRec [H.264 / 720p] скачать торрент бесплатно


    • Комментарии (0):

      Информация

      Информация

        Посетители, находящиеся в группе Гости, не могут оставлять комментарии в данной новости.

        ↓ Меню




        ↓ Опрос

        Вы добавили сайт в закладки?
        Да
        Нет


        Top 10 за неделю (Книги)

        М. М. Кубланов | Иисус Христос - бог, человек, миф (1964) [DJVU] скачать торрент бесплатно

        (просмотров: 121)
        Эдди Рассел | Текстурирование модели в 3D-рабочей среде Photoshop (2013) PCRec [H.264 / 720p] скачать торрент бесплатно

        (просмотров: 101)
        Джоэл Бредли | Симуляция ткани в 3ds Max (2014) PCRec [H.264 / 720p] скачать торрент бесплатно

        (просмотров: 101)
        Ирина Градова | Последняя надежда обреченных (2016) [FB2] скачать торрент бесплатно

        (просмотров: 31)
        Подшивка журналов | Mustang Monthly (2015) [PDF] [EN] скачать через торрент бесплатно

        (просмотров: 21)
        Антон Демченко | Боярич (2015) [FB2] скачать торрент бесплатно

        (просмотров: 21)
        М. Лацис | Энциклопедия бани. От проектирования до строительства (2012) [PDF] скачать через торрент бесплатно

        (просмотров: 21)
        Журнал | Народный доктор. Спецвыпуск №3 (23) (2014) [PDF] скачать через торрент бесплатно

        (просмотров: 21)
        Юлия Кузьмина | Современные танцы GO-GO (2011) HDRip [H.264] скачать торрент бесплатно

        (просмотров: 11)
        Сергей Змеев | Как построить дом мечты (2016) DVDRip [H.264] скачать торрент бесплатно

        (просмотров: 11)