.
Авторизация | Регистрация
Хочешь лучшие торренты? Добавь свой email!
Добавить

Торрент скачать бесплатно

» » Андрей Кудлай | Фреймворк YII2 с Нуля до Профи (2016) PCRec [H.264 / 720p] торрент скачать бесплатно




    Андрей Кудлай | Фреймворк YII2 с Нуля до Профи (2016) PCRec [H.264 / 720p] торрент скачать бесплатно

    Опубликовал: Админ | Дата: 11-07-2016, 04:00 | Просмотров: 82

    Автор (режиссер): Андрей Кудлай
    Жанр: PHP, YII2, реймворк

    Описание

    Этот видеокурс - наиболее полный в Рунете практический видеокурс по освоению фреймворка Yii2, благодаря которому Вы изучите фреймворк Yii2 на достаточном уровне для создания сайтов и веб-проектов практически любого уровня сложности и назначения: от блогов и визиток до новостийных мега-порталов и гигантских интернет-магазинов. Используя возможности фреймворка, мы можем построить простейший сайт за считанные часы, имея лишь базовые знания PHP. Блошиный рынок, сказал кто то из толпы, к чему не понятно. Ну а имея продвинутые знания PHP, мы ничем не ограничены при создании сложных сайтов, фреймворк Yii2 значительно облегчит нашу задачу.
    Продолжительность: 68: 24: 38
    Качество видео: PCRec
    Видео: AVC, 1280x720 (16: 9), 15.000 fps, 304 Kbps
    Аудио: AAC LC, 44.1 KHz, 2 ch, 125 Kbps, CBR (English)
    Код:

    Общее
    Полное имя .......................videokurspart11.mp4
    Формат : MPEG-4
    Профиль формата : Base Media/Version 2
    Идентификатор кодека : mp42
    Размер файла : 31, 3 Мбайт
    Продолжительность : 10 м.
    Общий поток : 431 Кбит/сек
    Дата кодирования : UTC 2016-05-08 09:45:53
    Дата пометки : UTC 2016-05-08 09:45:53
    Видео
    Идентификатор : 1
    Формат : AVC
    Формат/Информация : Advanced Video Codec
    Профиль формата : High@L4
    Параметр CABAC формата : Да
    Параметр ReFrames формата : 4 кадра
    Идентификатор кодека : avc1
    Идентификатор кодека/Информация : Advanced Video Coding
    Продолжительность : 10 м.
    Продолжительность оригинала : 10 м.
    Битрейт : 304 Кбит/сек
    Ширина : 1280 пикселей
    Высота : 720 пикселей
    Соотношение сторон : 16:9
    Режим частоты кадров : Постоянный
    Частота кадров : 15, 000 кадров/сек
    Цветовое пространство : YUV
    Субдискретизация насыщенности : 4:2:0
    Битовая глубина : 8 бит
    Тип развёртки : Прогрессивная
    Бит/(Пиксели*Кадры) : 0.022
    Размер потока : 22, 1 Мбайт (71%)
    Размер потока оригинала : 22, 1 Мбайт (71%)
    Язык : English
    Дата кодирования : UTC 2016-05-08 09:45:53
    Дата пометки : UTC 2016-05-08 09:45:53
    Цветовой диапазон : Limited
    Основные цвета : BT.709
    Характеристики трансфера : BT.709
    Коэффициенты матрицы : BT.709
    mdhd_Duration : 608961
    Аудио
    Идентификатор : 2
    Формат : AAC
    Формат/Информация : Advanced Audio Codec
    Профиль формата : LC
    Идентификатор кодека : 40
    Продолжительность : 10 м.
    Продолжительность оригинала : 10 м.
    Вид битрейта : Постоянный
    Битрейт : 125 Кбит/сек
    Каналы : 2 канала
    Расположение каналов : Front: L R
    Частота : 44, 1 КГц
    Метод сжатия : С потерями
    Размер потока : 9, 05 Мбайт (29%)
    Размер потока оригинала : 9, 05 Мбайт (29%)
    Язык : English
    Дата кодирования : UTC 2016-05-08 09:45:53
    Дата пометки : UTC 2016-05-08 09:45:53
    mdhd_Duration : 608887


    Скриншоты для ознакомления




    Андрей Кудлай | Фреймворк YII2 с Нуля до Профи (2016) PCRec [H.264/720p]
    загрузка...
    Рейтинг →
     (голосов: 1, оценка 3/5, голосовать можно 1 раз )

    Другие торренты по теме:

  • Андрей Кудлай | Курс по регулярным выражениям на PHP (2015) PCRec [H.264] скачать через торрент бесплатно
  • Андрей Кудлай | Фреймворк Bootstrap: практика адаптивной верстки от А до Я (2015) PCRec [H.264 / 720p]
  • Андрей Кудлай | Создание каталога товаров с помощью PHP, MySQL и jQuery (2015) PCRec
  • Андрей Кудлай | Интернет-магазин на OpenCart. Создание магазина с уникальным шаблоном (2017) PCRec


    • Комментарии (0):

      Информация

      Информация

        Посетители, находящиеся в группе Гости, не могут оставлять комментарии в данной новости.

        ↓ Меню




        ↓ Опрос

        Вы добавили сайт в закладки?
        Да
        Нет


        Top 10 за месяц (Книги)

        Андрей Сазонов | Мифы о нашем теле. Научный подход к примитивным вопросам (2017) [FB2]

        (скачиваний: 29)
        Элла Берту, Сьюзен Элдеркин | Книга как лекарство. Скорая литературная помощь от А до Я (2016) [FB2, EPUB]

        (скачиваний: 25)
        Оуэйн Сервис, Рори Галлахер | Начинай с малого. Научно доказанная система достижения больших целей (2018) [PDF, FB2, EPUB]

        (скачиваний: 22)
        Григорий-Азиз | Фишки Ворда и Экселя [Word and Excel] (2017) PCRec [H.264]

        (скачиваний: 21)
        Юрий Подольский | Делаем сами коптильни, грили, мангалы, уличные печи (2017) [PDF, FB2, EPUB]

        (скачиваний: 21)
        Юрий Морозов | Ремонт дачного дома своими руками. Полное руководство (2017) [PDF]

        (скачиваний: 20)
        Дмитрий Петров, Алексей Кржижевский | Серия: Полиглот. Выучим иностранный язык за 16 часов [5 книг] (2014-2015) [PDF, DJVU]

        (скачиваний: 20)
        Кевин Келли | Неизбежно. 12 технологических трендов, которые определяют наше будущее (2017) [PDF, EPUB, MOBI]

        (скачиваний: 20)
        Наталья Корикова | Полезные и вкусные бутерброды. Алгоритм приготовления и рецепты (2017) [PDF]

        (скачиваний: 19)
        Екатерина Юша | Графоман или писатель Пишем свою первую книгу (2017) [FB2, EPUB]

        (скачиваний: 18)