.
Авторизация | Регистрация
Хочешь лучшие торренты? Добавь свой email!
Добавить

Торрент скачать бесплатно

» » Geekbrains | SEO. Оптимизация и продвижение сайтов (2014) PCRec торрент скачать бесплатно




    Geekbrains | SEO. Оптимизация и продвижение сайтов (2014) PCRec торрент скачать бесплатно

    Опубликовал: Админ | Дата: 3-07-2016, 04:00 | Просмотров: 84

    Автор (режиссер): Geekbrains
    Преподаватель: Илья Ростокин
    Жанр: SEO, Продвижение сайтов

    Описание

    Курс по SEO создан специально для тех, кому интересно не просто создание, но и продвижение сайтов в сети Интернет. Для быстрого успешного освоения программы курса Вам потребуются базовые знания HTML. Начальные знания в области поисковой оптимизации необязательны. Курс дает полное подробное практическое руководство для овладения предметом на уровне профессии.
    Чему Вы научитесь:
    В курсе рассматривается широкий ряд интернет технологий, которые необходимы для успешного продвижения сайтов в сети Интернет — SEO (Search Engine Optimization).
    Используя приемы и методики SEO-оптимизации, Вы научитесь создавать сайты, которые выйдут на первые места на поисковых машинах, за счет чего количество пользователей на Вашем сайте значительно увеличится.
    Продолжительность: 20: 00: 59
    Качество видео: PCRec
    Видео: AVC/H.264, 1280x1024, ~230 Kbps
    Аудио: AAC, 2 ch, 126-255 Kbps, VBR
    Код:

    Общее
    Полное имя : D:[Geekbrains] SEO. Оптимизация и продвижение сайтов1 ДеньSEOUrok1.mp4
    Формат : MPEG-4
    Профиль формата : Base Media/Version 2
    Идентификатор кодека : mp42 (isom/mp42)
    Размер файла : 417 Мбайт
    Продолжительность : 2 ч. 42 м.
    Режим общего битрейта : Переменный
    Общий поток : 358 Кбит/сек
    Дата кодирования : UTC 2014-09-25 18:55:14
    Дата пометки : UTC 2014-09-25 18:55:14
    Видео
    Идентификатор : 1
    Формат : AVC
    Формат/Информация : Advanced Video Codec
    Профиль формата :Baseline@L3.2
    Параметр CABAC формата : Нет
    Параметр ReFrames формата : 3 кадра
    Идентификатор кодека : avc1
    Идентификатор кодека/Информация : Advanced Video Coding
    Продолжительность : 2 ч. 42 м.
    Продолжительность оригинала : 2 ч. Прикольно все это наверно придумал Папа Римский потратив достаточно времени. 42 м.
    Битрейт : 230 Кбит/сек
    Ширина : 1280 пикселей
    Высота : 1024 пикселя
    Соотношение сторон : 5:4
    Режим частоты кадров : Переменный
    Частота кадров : 30, 000 кадров/сек
    Минимальная частота кадров : 30, 000 кадров/сек
    Максимальная частота кадров : 30, 030 кадров/сек
    Стандарт вещания : NTSC
    Цветовое пространство : YUV
    Субдискретизация насыщенности : 4:2:0
    Битовая глубина : 8 бит
    Тип развёртки : Прогрессивная
    Бит/(Пиксели*Кадры) : 0.006
    Размер потока : 267 Мбайт (64%)
    Размер потока оригинала : 267 Мбайт (64%)
    Язык : English
    Дата кодирования : UTC 2014-09-25 18:55:15
    Дата пометки : UTC 2014-09-25 18:55:15
    Цветовой диапазон : Limited
    mdhd_Duration : 9758500
    Аудио
    Идентификатор : 2
    Формат : AAC
    Формат/Информация : Advanced Audio Codec
    Профиль формата : LC
    Идентификатор кодека : 40
    Продолжительность : 2 ч. О таком странном сюжете не догадывалась даже Земфира. 42 м.
    Продолжительность оригинала : 2 ч. 42 м.
    Вид битрейта : Переменный
    Битрейт : 126 Кбит/сек
    Максимальный битрейт : 255 Кбит/сек
    Каналы : 2 канала
    Расположение каналов : Front: L R
    Частота : 44, 1 КГц
    Частота кадров : 43, 066 кадра/сек (1024 spf)
    Метод сжатия : С потерями
    Размер потока : 146 Мбайт (35%)
    Размер потока оригинала : 146 Мбайт (35%)
    Язык : English
    Дата кодирования : UTC 2014-09-25 18:55:15
    Дата пометки : UTC 2014-09-25 18:55:15


    Скриншоты для ознакомления




    Geekbrains | SEO. Оптимизация и продвижение сайтов (2014) PCRec
    загрузка...
    Рейтинг →
     (голосов: 1, оценка 4/5, голосовать можно 1 раз )

    Другие торренты по теме:

  • Geekbrains | SEO. Оптимизация и продвижение сайтов (2016) PCRec [H.264 / 720p]


    • Комментарии (0):

      Информация

      Информация

        Посетители, находящиеся в группе Гости, не могут оставлять комментарии в данной новости.

        ↓ Меню




        ↓ Опрос

        Вы добавили сайт в закладки?
        Да
        Нет


        Top 10 за месяц (Книги)

        Евгений Старухин | Цикл «Лесовик» [4 книги. Обновляемая] (2015-2017) [FB2]

        (скачиваний: 31)
        Книжная серия | «В одном томе» [157 книг] (2005-2017) [FB2]

        (скачиваний: 25)
        Сергей Тармашев | Каждому своё (2017) [FB2]

        (скачиваний: 23)
        Джо Диспенза | Сверхъестественный разум. Как обычные люди делают невозможное с помощью силы подсознания (2017) [PDF]

        (скачиваний: 22)
        CHIP | DVD приложение к журналу CHIP №12 (Ноябрь 2017) [unpacked]

        (скачиваний: 22)
        Полина Сухова | Инструкции по эксплуатации мозга для обывателя (2017) [FB2]

        (скачиваний: 21)
        Книжная серия | Мировой бестселлер [102 книги] (2010-2017) [FB2]

        (скачиваний: 19)
        Книжная серия | «Двойной артефакт-детектив» [49 книг] (2012-2017) [FB2]

        (скачиваний: 17)
        Голубев Андрей | Ремонт ЖК телевизоров и мониторов (2015) CamRip [H.264 / 720p] скачать через торрент бесплатно

        (скачиваний: 16)
        Александр Михайловский, Александр Харников | «Гроза» против «Барбароссы» (2017) [FB2]

        (скачиваний: 16)