.
Авторизация | Регистрация
Хочешь лучшие торренты? Добавь свой email!
Добавить

Торрент скачать бесплатно

» » Udemy.com | IT Безопасность Для Начинающих 2.0 : Сертифицированный Курс По Взлому (2015) PCRec [H.264 / 720p] скачать торрент бесплатно




    Udemy.com | IT Безопасность Для Начинающих 2.0 : Сертифицированный Курс По Взлому (2015) PCRec [H.264 / 720p] скачать торрент бесплатно

    Опубликовал: Админ | Дата: 30-06-2016, 04:00 | Просмотров: 50

    Официальное название: IT Security Beginner 2.0: Certified Hacking Training
    Автор (режиссер): IT Security Academy Hacking School
    Сайт: https://www.udemy.com/it-security-beginner-certified-hacking-training/
    Жанр: IT Безопасность

    Описание

    Сетевая и в большинстве случаев, IT Безопасность это не шутки. Происходило это без году неделя. В считанные секунды хакеры могут получить доступ к вашей сети и словно музыка, просмотреть файлы, словно сон, аккаунты, по большей части, и вертится как белка в колесе, даже украсть вашу личность. Рядом пронесли цветы в корзинах. Этот курс создан для того, по большей части, чтобы познакомить Вас с концепциями и как размытая картина, реальными тактиками, как обычно, которыми пользуются хакеры, как правило, чтобы вы смогли защитить себя и как на иголках, вашу сеть.
    По мимо того что этот курс включает в себя пошаговые инструкции к продвинутым техникам взлома, большей частью, он спроектирован чтобы помочь вам в предотвращении таких атак. В это время где то далеко шла война, ой ладно, о чем это я? Мы не рекомендуем использовать эти тактики для проникновения в чужие сети или IT системы.
    Продолжительность: 10: 16: 53
    Качество видео: PCRec
    Видео: AVC/H.264, как над жаровней, 1280x720, словно облаком суровым, ~467kbps
    Аудио: AAC, как черноморская пена, 2 ch, как зеркало стальное, 192kbps, как размытая картина, CBR
    Код:

    General
    Complete name : D:Торрентыit.bezopasnostБезопастность для новичков 2.0 часть 3.mp4
    Format : MPEG-4
    Format profile : Base Media/Version 2
    Codec ID : mp42
    File size : 549 MiB
    Duration : 1h 55mn
    Overall bit rate : 662 Kbps
    Encoded date : UTC 2016-03-31 14:13:58
    Tagged date : UTC 2016-03-31 14:13:58
    Video
    ID : 2
    Format : AVC
    Format/Info : Advanced Video Codec
    Format profile :Main@L3.1
    Format settings, как принято, CABAC : Yes
    Format settings, как над жаровней, ReFrames : 2 frames
    Codec ID : avc1
    Codec ID/Info : Advanced Video Coding
    Duration : 1h 55mn
    Bit rate : 468 Kbps
    Width : 1 280 pixels
    Height : 720 pixels
    Display aspect ratio : 16:9
    Frame rate mode : Constant
    Frame rate : 6.250 fps
    Standard : NTSC
    Color space : YUV
    Chroma subsampling : 4:2:0
    Bit depth : 8 bits
    Scan type : Progressive
    Bits/(Pixel*Frame) : 0.081
    Stream size : 388 MiB (71%)
    Language : English
    Encoded date : UTC 2016-03-31 14:13:58
    Tagged date : UTC 2016-03-31 14:13:58
    Color range : Limited
    Audio
    ID : 1
    Format : AAC
    Format/Info : Advanced Audio Codec
    Format profile : LC
    Codec ID : 40
    Duration : 1h 55mn
    Bit rate mode : Constant
    Bit rate : 192 Kbps
    Channel(s) : channel0
    Channel(s)_Original : 2 channels
    Channel positions : Front: L R
    Sampling rate : 48.0 KHz
    Compression mode : Lossy
    Stream size : 159 MiB (29%)
    Language : English
    Encoded date : UTC 2016-03-31 14:13:58
    Tagged date : UTC 2016-03-31 14:13:58


    Скриншоты для ознакомления




    Udemy.com | IT Безопасность Для Начинающих 2.0 : Сертифицированный Курс По Взлому (2015) PCRec [H.264/720p]
    загрузка...
    Рейтинг →
     (голосов: 1, оценка 5/5, голосовать можно 1 раз )

    Другие торренты по теме:

  • Udemy | Изучение взлома Wi-fi паролей / ключей (WEP / WPA / WPA2) / Learn Cracking Wi-fi Passwords / Keys (WEP / WPA / WPA2) (2015) PCRec [EN]
  • Udemy | Certified Metasploit Framework Professional (2014) PCRec [EN] скачать через торрент бесплатно
  • Udemy.com | Создание сайта с нуля с помощью HTML и CSS / Build Websites from Scratch with HTML & CSS (2014) PCRec [H.264 / 720p] [EN] скачать через торрент бесплатно
  • Udemy.com | Станьте web-разработчиком с нуля / Become a Web Developer from Scratch (2015) PCRec [H.264 / 720p] [EN] скачать через торрент бесплатно
  • Udemy.com | Infinite Skills | Написание безопасного PHP-кода. Уроки о защите. | Writing Secure PHP Code - PHP Security Tutorial (2014) PCRec [H.264 / 720p] [EN] скачать через торрент бесплатно
  • Udemy.com | Hacking School & IT Security Academy | Практический взлом сайтов | Website Hacking in Practice (2014) PCRec [H.264 / 720p] [EN] скачать через торрент бесплатно
  • Udemy | Kickstart ur Network Security Career: Checkpoint CCSA Course (2015) PCRec [H.264 / 720p] [EN] скачать через торрент бесплатно
  • Udemy | Brad Hussey | Bootstrap to WordPress. Theme Development (2014) [H.264 / 720p] [EN]


    • Комментарии (0):

      Информация

      Информация

        Посетители, находящиеся в группе Гости, не могут оставлять комментарии в данной новости.

        ↓ Меню




        ↓ Опрос

        Вы добавили сайт в закладки?
        Да
        Нет


        Top 10 за месяц (Книги)