.
Авторизация | Регистрация
Хочешь лучшие торренты? Добавь свой email!
Добавить

Торрент скачать бесплатно

» » Специалист | Oracle 11g: Настройка команд SQL (2014) WEBRip торрент скачать бесплатно




    Специалист | Oracle 11g: Настройка команд SQL (2014) WEBRip торрент скачать бесплатно

    Опубликовал: Админ | Дата: 30-06-2016, 04:00 | Просмотров: 43

    Автор (режиссер): Флока Василий Борисович
    Производство: Специалист
    Жанр: программирование

    Описание

    На занятиях курса рассматриваются методы, позволяющие получить различные уровни детализации информации о том, как сервер базы данных Oracle выполняет SQL-команды. Вы изучите различные способы доступа к данным, узнаете о том, какие из них являются наиболее эффективными в тех или иных случаях, и как обеспечить использование лучшего метода. В ходе обучения Вы рассмотрите методы соединения таблиц, секционирование таблиц, а также использование подсказок оптимизатора, переменных привязки и различные типы индексов.
    Продолжительность: 08: 21: 53
    Качество видео: WEBRip
    Видео: AVC/H.264, 1024*768, ~50 Kbps
    Аудио: AAC, 2 ch, 64 Kbps, VBR
    Код:

    Формат : MPEG-4
    Профиль формата : Base Media/Version 2
    Идентификатор кодека : mp42 (mp42/isom)
    Размер файла : 60, 6 Мбайт
    Продолжительность : 1 ч. 11 м.
    Режим общего битрейта : Переменный
    Общий поток : 118 Кбит/сек
    Видео
    Идентификатор : 1
    Формат : AVC
    Формат/Информация : Advanced Video Codec
    Профиль формата :High@L3.1
    Параметр CABAC формата : Да
    Параметр ReFrames формата : 4 кадра
    Идентификатор кодека : avc1
    Идентификатор кодека/Информация : Advanced Video Coding
    Продолжительность : 1 ч. 11 м.
    Продолжительность оригинала : 1 ч. 11 м.
    Битрейт : 50, 0 Кбит/сек
    Ширина : 1024 пикселя
    Высота : 768 пикселей
    Соотношение сторон : 4:3
    Режим частоты кадров : Постоянный
    Частота кадров : 10, 000 кадров/сек
    Цветовое пространство : YUV
    Субдискретизация насыщенности : 4:2:0
    Битовая глубина : 8 бит
    Тип развёртки : Прогрессивная
    Бит/(Пиксели*Кадры) : 0.006
    Размер потока : 25, 7 Мбайт (42%)
    Размер потока оригинала : 25, 7 Мбайт (42%)
    Библиотека кодирования : x264 core 125 r2200 999b753
    Настройки программы : cabac=1/ref=3/deblock=1:0:0/analyse=0x3:0x113/me=hex/subme=7/psy=1/psy_rd=1.00:0.00/mixed_ref=1/me_range=16/chroma_me=1/trellis=1/8x8dct=1/cqm=0/deadzone=21, 11/fast_pskip=1/chroma_qp_offset=-2/threads=6/lookahead_threads=1/sliced_threads=0/nr=0/decimate=1/interlaced=0/bluray_compat=0/constrained_intra=0/bframes=3/b_pyramid=2/b_adapt=1/b_bias=0/direct=1/weightb=1/open_gop=0/weightp=2/keyint=250/keyint_min=10/scenecut=40/intra_refresh=0/rc_lookahead=40/rc=2pass/mbtree=1/bitrate=50/ratetol=1.0/qcomp=0.60/qpmin=0/qpmax=69/qpstep=4/cplxblur=20.0/qblur=0.5/ip_ratio=1.40/aq=1:1.00
    Язык : English
    mdhd_Duration : 4315000
    Аудио
    Идентификатор : 2
    Формат : AAC
    Формат/Информация : Advanced Audio Codec
    Профиль формата : LC
    Идентификатор кодека : 40
    Продолжительность : 1 ч. 11 м.
    Вид битрейта : Переменный
    Битрейт : 64, 0 Кбит/сек
    Каналы : 2 канала
    Расположение каналов : Front: L R
    Частота : 44, 1 КГц
    Частота кадров : 43, 066 кадра/сек (1024 spf)
    Метод сжатия : С потерями
    Размер потока : 32, 9 Мбайт (54%)
    Язык : English


    Скриншоты для ознакомления




    Специалист | Oracle 11g: Настройка команд SQL (2014) WEBRip
    загрузка...
    Рейтинг →
     (голосов: 1, оценка 5/5, голосовать можно 1 раз )

    Другие торренты по теме:

  • Специалист | Oracle 12c. Ускоренный курс по администрированию, установке и обновлению (2016) PCRec [H.264]
  • Специалист | Oracle 11g: Передовые методы PL / SQL (2014) WEBRip
  • Специалист | Основы администрирования Oracle 11g, часть I (2013) PCRec [H.264] скачать через торрент бесплатно


    • Комментарии (0):

      Информация

      Информация

        Посетители, находящиеся в группе Гости, не могут оставлять комментарии в данной новости.

        ↓ Меню




        ↓ Опрос

        Вы добавили сайт в закладки?
        Да
        Нет


        Top 10 за месяц (Книги)

        Джиллиан Майклз | Знаменитая программа Джиллиан Майклз: Стройное и здоровое тело за 30 дней (2016) [FB2]

        (скачиваний: 54)
        И.Б. Фефилова | Антивозрастная медицина. Современная энциклопедия (2015) [PDF, EPUB]

        (скачиваний: 31)
        Михаил Диденко | Русский стиль выживания. Как остаться в живых одному в лесу (2017) [PDF, FB2]

        (скачиваний: 27)
        Михаил Лабковский | Хочу и буду: Принять себя, полюбить жизнь и стать счастливым (2017) [FB2, EPUB]

        (скачиваний: 24)
        Александр Клинге | Ленин. Самая правдивая биография Ильича (2017) [FB2, EPUB]

        (скачиваний: 23)
        Джек Дэниелс | От 800 метров до марафона (2014) [FB2]

        (скачиваний: 22)
        Дэвид Агус | Завтра начинается сегодня. Как воспользоваться достижениями anti-age медицины (2017) [FB2, EPUB]

        (скачиваний: 20)
        Джон Дуглас, Марк Олшейкер | Психологический портрет убийцы. Методики ФБР (2016) [FB2, EPUB]

        (скачиваний: 20)
        Давид Дубницкий | Жанровый НЮ-портрет (2016) PCRec

        (скачиваний: 20)
        Евгений Старухин | Цикл «Лесовик» [4 книги. Обновляемая] (2015-2017) [FB2]

        (скачиваний: 20)