.
Авторизация | Регистрация
Хочешь лучшие торренты? Добавь свой email!
Добавить

Торрент скачать бесплатно

» » LoftSchool | Kомплексное обучение разработке на PHP (2016) PCRec торрент скачать бесплатно




    LoftSchool | Kомплексное обучение разработке на PHP (2016) PCRec торрент скачать бесплатно

    Опубликовал: Админ | Дата: 10-06-2016, 04:00 | Просмотров: 307

    Автор (режиссер): LoftSchool
    Жанр: Программирование, PHP, Back-end

    Описание

    ЧЕМУ ТЫ НАУЧИШЬСЯ, ПРОЙДЯ КУРС:
    Создавать современные PHP приложенияИспользуя лучшие передовые инструменты и технологии. Наша цель — дать тебе как можно больше знаний и навыков, необходимых для работы в современной веб-студии.Быстро реализовывать свою идеюИ запускать новый проект в срок от 2 дней до 2 недель.Использовать все необходимые инструменты для построения PHP приложенийХватит ковыряться в блокноте, используй профессиональные инструменты для разработки!Работать с CMSИспользовать CMS Wordpress и MODx для создания сайтов с УДОБНОЙ админкой за пару дней!Работать с базами данныхИспользовать ORM-решения и напрямую работать с MySQL.Создавать сайты любой сложности от простого блога, до крупного магазина или социальной сетиПолучишь портфолио из своих приложенийВо время курса ты напишешь свои собственные приложения и сделаешь сайт-каталог.
    Продолжительность: 35: 49: 32
    Качество видео: PCRec
    Видео: AVC/H.264, 1278x720, ~110 Kbps
    Аудио: AAC, 2 ch, 126 Kbps
    Код:

    Общее
    Полное имя : D:#LoftschoolКомплексное обучение разработке на PHP0.Открытие курсаОткрытие курса.mp4
    Формат : MPEG-4
    Профиль формата : Base Media/Version 2
    Идентификатор кодека : mp42 (isom/mp42)
    Размер файла : 93, 2 Мбайт
    Продолжительность : 55 м.
    Режим общего битрейта : Переменный
    Общий поток : 236 Кбит/сек
    Дата кодирования : UTC 2016-02-29 23:21:50
    Дата пометки : UTC 2016-02-29 23:21:50
    Видео
    Идентификатор : 1
    Формат : AVC
    Формат/Информация : Advanced Video Codec
    Профиль формата :Baseline@L3.1
    Параметр CABAC формата : Нет
    Параметр ReFrames формата : 3 кадра
    Параметр GOP формата : M=1, N=10
    Идентификатор кодека : avc1
    Идентификатор кодека/Информация : Advanced Video Coding
    Продолжительность : 55 м.
    Битрейт : 109 Кбит/сек
    Ширина : 1278 пикселей
    Высота : 720 пикселей
    Соотношение сторон : 16:9
    Режим частоты кадров : Постоянный
    Частота кадров : 2, 000 кадра/сек
    Цветовое пространство : YUV
    Субдискретизация насыщенности : 4:2:0
    Битовая глубина : 8 бит
    Тип развёртки : Прогрессивная
    Бит/(Пиксели*Кадры) : 0.059
    Размер потока : 43, 0 Мбайт (46%)
    Язык : English
    Дата кодирования : UTC 2016-02-29 23:21:50
    Дата пометки : UTC 2016-02-29 23:21:50
    Цветовой диапазон : Limited
    Аудио
    Идентификатор : 2
    Формат : AAC
    Формат/Информация : Advanced Audio Codec
    Профиль формата : LC
    Идентификатор кодека : 40
    Продолжительность : 55 м.
    Вид битрейта : Переменный
    Битрейт : 126 Кбит/сек
    Максимальный битрейт : 454 Кбит/сек
    Каналы : 2 канала
    Расположение каналов : Front: L R
    Частота : 44, 1 КГц
    Частота кадров : 43, 066 кадра/сек (1024 spf)
    Метод сжатия : С потерями
    Размер потока : 49, 6 Мбайт (53%)
    Язык : English
    Дата кодирования : UTC 2016-02-29 23:21:50
    Дата пометки : UTC 2016-02-29 23:21:50


    Скриншоты для ознакомления




    LoftSchool | Kомплексное обучение разработке на PHP (2016) PCRec
    загрузка...
    Рейтинг →
     (голосов: 1, оценка 3/5, голосовать можно 1 раз )

    Другие торренты по теме:

  • LoftSchool | Kомплексное обучение разработке на PHP (2015) PCRec [H.264 / 720p] скачать через торрент бесплатно


    • Комментарии (0):

      Информация

      Информация

        Посетители, находящиеся в группе Гости, не могут оставлять комментарии в данной новости.

        ↓ Меню




        ↓ Опрос

        Вы добавили сайт в закладки?
        Да
        Нет


        Top 10 за месяц (Книги)

        Андрей Сазонов | Мифы о нашем теле. Научный подход к примитивным вопросам (2017) [FB2]

        (скачиваний: 31)
        Элла Берту, Сьюзен Элдеркин | Книга как лекарство. Скорая литературная помощь от А до Я (2016) [FB2, EPUB]

        (скачиваний: 28)
        Оуэйн Сервис, Рори Галлахер | Начинай с малого. Научно доказанная система достижения больших целей (2018) [PDF, FB2, EPUB]

        (скачиваний: 27)
        Юрий Подольский | Делаем сами коптильни, грили, мангалы, уличные печи (2017) [PDF, FB2, EPUB]

        (скачиваний: 24)
        Григорий-Азиз | Фишки Ворда и Экселя [Word and Excel] (2017) PCRec [H.264]

        (скачиваний: 23)
        Дмитрий Петров, Алексей Кржижевский | Серия: Полиглот. Выучим иностранный язык за 16 часов [5 книг] (2014-2015) [PDF, DJVU]

        (скачиваний: 22)
        Наталья Корикова | Полезные и вкусные бутерброды. Алгоритм приготовления и рецепты (2017) [PDF]

        (скачиваний: 21)
        Юрий Морозов | Ремонт дачного дома своими руками. Полное руководство (2017) [PDF]

        (скачиваний: 21)
        Кевин Келли | Неизбежно. 12 технологических трендов, которые определяют наше будущее (2017) [PDF, EPUB, MOBI]

        (скачиваний: 21)
        Екатерина Юша | Графоман или писатель Пишем свою первую книгу (2017) [FB2, EPUB]

        (скачиваний: 20)