.
Авторизация | Регистрация
Хочешь лучшие торренты? Добавь свой email!
Добавить

Торрент скачать бесплатно

» » Highlights School | Основы фотографии (2016) PCRec торрент скачать бесплатно




    Highlights School | Основы фотографии (2016) PCRec торрент скачать бесплатно

    Опубликовал: Админ | Дата: 10-06-2016, 04:00 | Просмотров: 280

    Автор (режиссер): Максим Востриков
    Производство: Highlights School
    Жанр: Фотография

    Описание

    Этот курс идеален для начинающих!
    Известный фотограф Максим Востриков объяснит и покажет на пальцах, как снимать крутые фото, даже если до обучения у вас была обыкновенная мыльница или телефон. Вы узнайте не только основы основ, вроде композиции, теории света и настроек вашего фотоаппарата, но и примените на практике десятки полезных приемов, которые делают снимки даже начинающего фотографа волшебными. На каждом занятии вы не только узнаете новую и словно музыка интересную информацию, но и попробуете все на своей камере.
    Продолжительность: ~15: 00: 00
    Качество видео: PCRec
    Язык: Русский
    Видео: AVC/H.264, 1280х800, ~384 Кбит/сек
    Аудио: AAC, 2 ch, 160 Кбит/сек, CBR
    Код:

    Формат : MPEG-4
    Профиль формата : Base Media
    Идентификатор кодека : isom (isom/iso2/avc1/mp41)
    Размер файла : 626 Мбайт
    Продолжительность : 2 ч. 39 м.
    Общий поток : 549 Кбит/сек
    Программа кодирования : Lavf56.15.102
    Видео
    Идентификатор : 1
    Формат : AVC
    Формат/Информация : Advanced Video Codec
    Профиль формата :High@L3.2
    Параметр CABAC формата : Да
    Параметр ReFrames формата : 4 кадра
    Идентификатор кодека : avc1
    Идентификатор кодека/Информация : Advanced Video Coding
    Продолжительность : 2 ч. 39 м.
    Битрейт : 384 Кбит/сек
    Ширина : 1280 пикселей
    Высота : 800 пикселей
    Соотношение сторон : 16:10
    Режим частоты кадров : Постоянный
    Частота кадров : 20, 000 кадров/сек
    Цветовое пространство : YUV
    Субдискретизация насыщенности : 4:2:0
    Битовая глубина : 8 бит
    Тип развёртки : Прогрессивная
    Бит/(Пиксели*Кадры) : 0.019
    Размер потока : 438 Мбайт (70%)
    Библиотека кодирования : x264 core 142
    Настройки программы : cabac=1/ref=1/deblock=1:0:0/analyse=0x3:0x113/me=hex/subme=2/psy=1/psy_rd=1.00:0.00/mixed_ref=0/me_range=16/chroma_me=1/trellis=0/8x8dct=1/cqm=0/deadzone=21, 11/fast_pskip=1/chroma_qp_offset=0/threads=12/lookahead_threads=4/sliced_threads=0/nr=0/decimate=1/interlaced=0/bluray_compat=0/constrained_intra=0/bframes=3/b_pyramid=2/b_adapt=1/b_bias=0/direct=1/weightb=1/open_gop=0/weightp=1/keyint=250/keyint_min=20/scenecut=40/intra_refresh=0/rc_lookahead=10/rc=crf/mbtree=1/crf=22.0/qcomp=0.60/qpmin=0/qpmax=69/qpstep=4/vbv_maxrate=2500/vbv_bufsize=2500/crf_max=0.0/nal_hrd=none/filler=0/ip_ratio=1.40/aq=1:1.00
    Аудио
    Идентификатор : 2
    Формат : AAC
    Формат/Информация : Advanced Audio Codec
    Профиль формата : LC
    Идентификатор кодека : 40
    Продолжительность : 2 ч. 39 м.
    Вид битрейта : Постоянный
    Битрейт : 160 Кбит/сек
    Каналы : 2 канала
    Расположение каналов : Front: L R
    Частота : 44, 1 КГц
    Частота кадров : 43, 066 кадра/сек (1024 spf)
    Метод сжатия : С потерями
    Размер потока : 182 Мбайт (29%)
    Заголовок : Track1
    Default : Да
    Alternate group : 1


    Скриншоты для ознакомления




    Highlights School | Основы фотографии (2016) PCRec
    загрузка...
    Рейтинг →
     (голосов: 1, оценка 5/5, голосовать можно 1 раз )

    Другие торренты по теме:

  • Highlights School | Портретная обработка (2015) PCRec [H.264] скачать через торрент бесплатно
  • Highlights School | Продвинутый курс Photoshop (2015) PCRec [H.264] скачать через торрент бесплатно
  • Highlights School | Основы веб-дизайна (2015) PCRec [H.264 / 720p]


    • Комментарии (0):

      Информация

      Информация

        Посетители, находящиеся в группе Гости, не могут оставлять комментарии в данной новости.

        ↓ Меню




        ↓ Опрос

        Вы добавили сайт в закладки?
        Да
        Нет


        Top 10 за месяц (Книги)

        Джиллиан Майклз | Знаменитая программа Джиллиан Майклз: Стройное и здоровое тело за 30 дней (2016) [FB2]

        (скачиваний: 63)
        И.Б. Фефилова | Антивозрастная медицина. Современная энциклопедия (2015) [PDF, EPUB]

        (скачиваний: 31)
        Михаил Диденко | Русский стиль выживания. Как остаться в живых одному в лесу (2017) [PDF, FB2]

        (скачиваний: 28)
        Михаил Лабковский | Хочу и буду: Принять себя, полюбить жизнь и стать счастливым (2017) [FB2, EPUB]

        (скачиваний: 28)
        Евгений Старухин | Цикл «Лесовик» [4 книги. Обновляемая] (2015-2017) [FB2]

        (скачиваний: 25)
        Александр Клинге | Ленин. Самая правдивая биография Ильича (2017) [FB2, EPUB]

        (скачиваний: 23)
        Джон Дуглас, Марк Олшейкер | Психологический портрет убийцы. Методики ФБР (2016) [FB2, EPUB]

        (скачиваний: 22)
        Джек Дэниелс | От 800 метров до марафона (2014) [FB2]

        (скачиваний: 22)
        Давид Дубницкий | Жанровый НЮ-портрет (2016) PCRec

        (скачиваний: 21)
        Майкл Грегер | Не сдохни! Еда в борьбе за жизнь (2017) [PDF]

        (скачиваний: 20)